Watch Wrestling Free AEW 2020 12 02 Winter Is Coming

Watch Wrestling Free AEW 2020 12 02 Winter Is Coming DX-TV

Watch Wrestling Free AEW 2020 12 02

 

 Watch Wrestling Free AEW 2020 12 02

 

[su_expand more_text=”Show More Info” less_text=”Close all Info” height=”30″ text_color=”#000000″ link_color=”#e25f8b” link_style=”button” more_icon=”icon: arrow-down” less_icon=”icon: arrow-up”]

 

Complete name : AEW.Dynamite.2020.12.02.1080p.WEB.h264-HEEL.mp4
Format : MPEG-4
Format profile : Base Media
Codec ID : isom
File size : 3.51 GiB
Duration : 2 h 0 min
Overall bit rate mode : Variable
Overall bit rate : 4 171 kb/s
Writing application : Lavf58.63.100

Watch Wrestling Free AEW 2020 12 02

Video
ID : 1
Format : AVC
Duration : 2 h 0 min
Source duration : 2 h 0 min
Bit rate : 3 906 kb/s
Width : 1 920 pixels
Height : 1 080 pixels
Display aspect ratio : 16:9
Frame rate mode : Variable
Frame rate : 29.970 FPS
Minimum frame rate : 29.412 FPS
Maximum frame rate : 30.303 FPS
Color space : YUV
Chroma subsampling : 4:2:0
Bit depth : 8 bits
Scan type : Progressive
Bits/(Pixel*Frame) : 0.063
mdhd_Duration : 7223217
Codec configuration box : avc

 Wrestling Free AEW 2020 12 02

Audio #1
ID : 2
Format : AAC LC
Format/Info : Advanced Audio
Codec ID : mp4a-40-2
Duration : 2 h 0 min
Bit rate mode : Constant
Bit rate : 127 kb/s
Channel(s) : 2 channels
Channel layout : L R
Sampling rate : 48.0 kHz
Frame rate : 46.875 FPS (1024 SPF)
Compression mode : Lossy
Stream size : 109 MiB (3%)
Language : English
Default : Yes
Alternate group : 1

Audio #2
ID : 3
Format : AAC LC
Format/Info : Advanced Audio
Codec ID : mp4a-40-2
Duration : 2 h 0 min
Bit rate mode : Variable
Bit rate : 127 kb/s
Maximum bit rate : 131 kb/s / 131 kb/s
Channel(s) : 2 channels
Channel layout : L R
Sampling rate : 48.0 kHz
Frame rate : 46.875 FPS
Compression mode : Lossy
Stream size : 110 MiB (3%)
Language : Spanish
Default : No
Alternate group : 1

Watch Wrestling Free AEW  

Complete name : AEW.Dynamite.2020.12.02.720p.WEB.h264-HEEL.mp4
Format : MPEG-4
Format profile : Base Media
Codec ID : isom
File size : 1.62 GiB
Duration : 2 h 0 min
Overall bit rate : 1 932 kb/s
Writing application : Lavf58.32.104

Video
ID : 1
Format : AVC
Format/Info : Advanced
Duration : 2 h 0 min
Bit rate : 1 826 kb/s
Width : 1 280 pixels
Height : 720 pixels
Display aspect ratio : 16:9
Frame rate mode : Variable
Frame rate : 29.970 FPS
Color space : YUV
Chroma subsampling : 4:2:0
Bit depth : 8 bits
Scan type : Progressive
Bits/(Pixel*Frame) : 0.066
Stream size : 1.54 GiB (95%)
Codec configuration box : avc

 Wrestling Free AEW 2020 12 02

Audio
ID : 2
Format : AAC LC
Format/Info : Advanced Audio
Codec ID : mp4a-40-2
Duration : 2 h 0 min
Bit rate mode : Constant
Bit rate : 96.0 kb/s
Channel(s) : 2 channels
Channel layout : L R
Sampling rate : 48.0 kHz
Frame rate : 46.875 FPS
Compression mode : Lossy
Stream size : 82.1 MiB (5%)
Default : Yes
Alternate group : 1

Free AEW 2020 12 02

 

[/su_expand]

 

 

Watch online

 

Server 1

 

 

 

 

Watch Wrestling Free AEW 2020 12 02

 

 

 

 

Server-2

 

 

 

 

watch now

 

 

 

 

Uploaded By Site DX-TV.com

 

Watch Wrestling Free AEW 2020 12 02

Download Links with premium High Speed   

 

 

 

 

dropapk.to

http://shrt10.com/y4IVRa
http://shrt10.com/2ZFAc

 

 

nitroflare.com

http://shrt10.com/0xfNG
http://shrt10.com/plLWFJ5p

 

 

rapidgator.net

http://shrt10.com/5AVad
http://shrt10.com/6HyVU

 

 

uploaded.net

http://shrt10.com/KpNfG8
http://shrt10.com/7iltG24G

 

 

uploadgig.com

htp://shrt10.com/WIgYWKi
http://shrt10.com/SzmGEC

 

https://dx-tv.com/watch-wrestling-online-gcw-for-the-culture-2020-10-10/

Leave a Reply

Your email address will not be published. Required fields are marked *

This site uses Akismet to reduce spam. Learn how your comment data is processed.