Watch AEW Dynamite 2020 02 12 1080p

AEW Dynamite 2020 02 12 1080p DX-TV

 

 

 

 AEW

 

 

 

 

Watch AEW Dynamite 2020 02 12 1080p

 

 

 

 

 

Complete name : AEW.Dynamite.2020.02.12.1080p.WEB.h264-HEEL.mp4
Format : MPEG-4
Format profile : Base Media
Codec ID : isom
File size : 3.57 GiB
Duration : 2 h 0 min
Overall bit rate mode : Variable
Overall bit rate : 4 248 kb/s
Writing application : Lavf58.36.100

Video
ID : 1
Format : AVC
Duration : 2 h 0 min
Source duration : 2 h 0 min
Bit rate : 3 985 kb/s
Width : 1 920 pixels
Height : 1 080 pixels
Display aspect ratio : 16:9
Frame rate mode : Variable
Frame rate : 29.970 (30000/1001) FPS
Minimum frame rate : 29.412 FPS
Maximum frame rate : 30.303 FPS
Color space : YUV
Chroma subsampling : 4:2:0
Bit depth : 8 bits
Scan type : Progressive
Bits/(Pixel*Frame) : 0.064
Stream size : 3.35 GiB (94%)
Source stream size : 3.35 GiB (94%)
mdhd_Duration : 7211172
Codec configuration box : avcC

Audio #1
ID : 2
Format : AAC LC
Codec ID : mp4a-40-2
Duration : 2 h 0 min
Bit rate mode : Constant
Bit rate : 126 kb/s
Channel(s) : 2 channels
Channel layout : L R
Sampling rate : 48.0 kHz
Frame rate : 46.875 FPS (1024 SPF)
Compression mode : Lossy
Stream size : 108 MiB (3%)
Language : English
Default : Yes
Alternate group : 1

Audio #2
ID : 3
Format : AAC LC
Codec ID : mp4a-40-2
Duration : 2 h 0 min
Bit rate mode : Variable
Bit rate : 127 kb/s
Maximum bit rate : 129 kb/s
Channel(s) : 2 channels
Channel layout : L R
Sampling rate : 48.0 kHz
Frame rate : 46.875 FPS (1024 SPF)
Compression mode : Lossy
Stream size : 109 MiB (3%)
Language : Spanish
Default : No
Alternate group : 1

 

 

Watch online

 

Server 1

 

 

 

watch now

 

 

 

Watch AEW Dynamite 2020 02 12 1080p

 

 

 

Uploaded By Site DX-TV.com

 

 

 

 

 

1fichier.com 

https://shrt10.com/DptRZAnT
https://shrt10.com/WHuJFsrgj
https://shrt10.com/I9HZIdr

 

DDL.to

 

 https://shrt10.com/6lMHn
https://shrt10.com/8p5twHgBu
https://shrt10.com/FTg2tzpXF

 

earn4files.com

https://shrt10.com/QQAUD
https://shrt10.com/6AkWQzml
https://shrt10.com/B9xN291P

 

rockfile.co

https://shrt10.com/kYuBa
https://shrt10.com/aRTFRKVv
https://shrt10.com/ksUa1aM

 

 

Download with premium account Links 

 

 

Keep2Share

 

 

nitroflare.com

 

 

rapidgator.net

 

 

uploadgig.com

 

 

 

dx-tv.com

 

Leave a Reply

Your email address will not be published. Required fields are marked *

This site uses Akismet to reduce spam. Learn how your comment data is processed.