AEW Dynamite 2020 02 12 720p

Watch AEW Dynamite 2020 02 12 720p HEEL DX-TV

AEW  2020

 

 

 AEW

 

 

 

 

AEW Dynamite 2020 02 12 720p

 

 

 

 

 

Complete name : AEW.Dynamite.2020.02.12.720p.WEB.h264-HEEL.mp4
Format : MPEG-4
Format profile : Base Media
Codec ID : isom
File size : 1.59 GiB
Duration : 2 h 0 min
Overall bit rate mode : Variable
Overall bit rate : 1 899 kb/s AEW Dynamite  
Writing application : Lavf58.32.104

Video
ID : 1
Format : AVC
Duration : 2 h 0 min
Bit rate : 1 794 kb/s
Width : 1 280 pixels
Height : 720 pixels
Display aspect ratio : 16:9
Frame rate mode : Variable
Frame rate : 29.970 (30000/1001) FPS
Minimum frame rate : 29.412 FPS
Maximum frame rate : 30.303 FPS
Color space : YUV
Chroma subsampling : 4:2:0
Bit depth : 8 bits
Scan type : Progressive
Bits/(Pixel*Frame) : 0.065
Stream size : 1.51 GiB (94%)
Codec configuration box : avcC

Audio
ID : 2
Format : AAC LC
Format/Info : Advanced Audio Codec Low Complexity
Codec ID : mp4a-40-2
Duration : 2 h 0 min
Bit rate mode : Variable
Bit rate : 96.0 kb/s
Channel(s) : 2 channels
Channel layout : L R
Sampling rate : 48.0 kHz
Frame rate : 46.875 FPS (1024 SPF)
Compression mode : Lossy
Stream size : 81.3 MiB (5%)
Default : Yes
Alternate group : 1

 

 

Watch online

 

 

 

Server 1

 

 

 

watch now

 

 

 

AEW Dynamite 2020 02 12 720p

 

 

 

Uploaded By Site DX-TV.com

 

 

 

 

 

1fichier.com 

 

 

DDL.to

 

 

 

earn4files.com

 

 

rockfile.co

 

 

 

Download with premium account Links 

 

 

Keep2Share

 

 

nitroflare.com

 

 

rapidgator.net

 

 

uploadgig.com

 

Dynamite 2020

 

dx-tv.com

 

Leave a Reply

Your email address will not be published. Required fields are marked *

This site uses Akismet to reduce spam. Learn how your comment data is processed.