WWE NXT 2020 02 12 HDTV Star

Watch WWE NXT 2020 02 12 HDTV Star DX-TV

 

WWE NXT 2020 

 

 WWE NXT

 

 

 

 

WWE NXT 2020 02 12 HDTV Star

 

 

Complete name : WWE.NXT.2020.02.12.HDTV.x264-Star.mp4
Format : MPEG-4
Format profile : Base Media
File size : 1.07 GiB
Duration : 1 h 32 min
Overall bit rate : 1 665 kb/s

Video
ID : 1
Format : AVC
Duration : 1 h 32 min
Bit rate : 1 500 kb/s
Width : 720 pixels
Height : 406 pixels
Display aspect ratio : 16:9
Frame rate mode : WWE NXT 2020 
Frame rate : 25.000 FPS
Color space : YUV
Chroma subsampling : 4:2:0
Bit depth : 8 bits
Scan type : Progressive
Bits/(Pixel*Frame) : 0.205
Stream size : 988 MiB (90%)
Color range : Limited
Color primaries : BT.601 PAL
Transfer characteristics : BT.709
Matrix coefficients : BT.601
Codec configuration box : avcC

Audio
ID : 2
Format : AAC LC
Format/Info : Advanced Audio Codec Low Complexity
Codec ID : mp4a-40-2 WWE NXT  
Duration : 1 h 32 min
Bit rate mode : Constant
Bit rate : 159 kb/s
Channel(s) : 2 channels
Channel layout : L R
Sampling rate : 48.0 kHz
Frame rate : 46.875 FPS (1024 SPF)
Compression mode : Lossy
Stream size : 105 MiB (10%)
Title : Stereo
Language : any
Default : Yes
Alternate group : 1

 

 

Watch online

 

 

Server 1

 

 

 

 

 

watch now

 

 

WWE NXT 2020 02 12 HDTV Star

 

 

 

Uploaded By Site DX-TV.com

 

 

 

 

 

1fichier.com 

 

 

DDL.to

 

 

earn4files.com

 

 

rockfile.co

 

 

 

Download with premium account Links 

 

 

Keep2Share

 

 

nitroflare.com

 

 

rapidgator.net

 

 

uploadgig.com

 

 

 

dx-tv.com

 

Leave a Reply

Your email address will not be published. Required fields are marked *

This site uses Akismet to reduce spam. Learn how your comment data is processed.