Watch AEW DARK 21 July 2020 Free 1080p

AEW DARK 21 July 2020 Free 1080p DX-TV

 

Watch AEW Free
 AEW DARK
 

Watch AEW DARK 21 July 2020 Free 1080p

 

 

 

Complete name : AEW.DARK.21st.July.2020.1080p.WEBRip.h264-TJ.mp4
Format : MPEG-4
Format profile : Base Media
Codec ID : isom Watch AEW Free
File size : 2.35 GiB
Duration : 1 h 13 min
Overall bit rate : 4 604 kb/s
Writing application : Lavf58.20.100

Watch AEW DARK 21 July 2020 Free 1080p

Video
ID : 1
Format : AVC
Duration : 1 h 13 min
Duration_FirstFrame : -33 ms
Bit rate : 4 468 kb/s
Width : 1 920 pixels
Height : 1 080 pixels
Display aspect ratio : 16:9
Frame rate mode : Variable
Frame rate : 29.970 FPS
rate : 29.990 FPS
Color space : YUV Watch AEW Free
Chroma subsampling : 4:2:0
Bit depth : 8 bits
Scan type : Progressive
Bits/(Pixel*Frame) : 0.072
Stream size : 2.28 GiB (97%)
Color range : Limited
Color primaries : BT.709
Transfer characteristics : BT.709
Matrix coefficients : BT.709
Codec configuration box : avcC

AEW DARK 21 July 2020 Free 1080p

Audio
ID : 2
Format : AAC LC
Format/Info : Advanced
Codec ID : mp4a-40-2
Duration : 1 h 13 min
Bit rate mode : Constant
Bit rate : 128 kb/s Watch AEW Free
Channel(s) : 2 channels
Channel layout : L R
Sampling rate : 44.1 kHz
Frame rate : 43.066 FPS
Compression mode : Lossy
Stream size : 66.9 MiB (3%)
Default : Yes Watch AEW Free
Alternate group : 1

AEW DARK 21 July 2020 Free 1080p

AEW Dark match card:

 

Raché Chanel vs. Hikaru Shida Watch AEW Free

Corey Hollis vs. ‘Superbad’ Kip Sabian

Sabby & Brady Pierce vs. Best Friends

Will Hobbs vs. ‘Absolute’ Ricky Starks

Scorpio Sky vs. Aaron Solow

Diamanté vs. KiLynn King Watch AEW Free

Robert Anthony vs. Darby Allin

Peter Avalon & Brandon Cutler vs. The Butcher & The Blade

 

 

Watch AEW DARK 21 July 2020 Free 1080p

 

 

 

Watch online

 

 

Server 1

 

 

 

 

watch now

 

 

 

 

Server 2

 

 

 

watch now

 

 

 

Server-3

 

 

 

watch now

 

 

 

Uploaded By Site DX-TV.com

 

 

 

Download with premium account Links  Watch AEW Free

 

 

Keep2Share

 

 

nitroflare.com

 

 

rapidgator.net

 

 

uploadgig.com

 

 

 

dx-tv.com

 

urlfree.net

Leave a Reply

Your email address will not be published. Required fields are marked *

This site uses Akismet to reduce spam. Learn how your comment data is processed.