Download 1080p WWE RAW 20 07 2020 Full Show

WWE RAW 2020 07 20 1080p HDTV Star DX-TV

 

Download WWE Raw 1080p
 

 Free Raw
 

 

Download 1080p WWE RAW 20 07 2020 Full Show

 

 

 
Complete name : WWE.RAW.2020.07.20.1080p.HDTV.x264-Star.mkv
Format : Matroska Download WWE Raw 1080p
Format version : Version 4
File size : 9.62 GiB
Duration : 2 h 11 min
Overall bit rate : 10.4 Mb/s
Writing library : Lavf58.29.100
Detection Type : Per level 1

WWE RAW 20 07 2020 Full Show

Video
ID : 1
Format : AVC
Codec ID : V_MPEG4/ISO/AVC
Duration : 2 h 11 min
Bit rate : 10 000 kb/s
Width : 1 920 pixels
Height : 1 080 pixels
Display aspect ratio : 16:9
Frame rate mode : Constant
Frame rate : 50.000 FPS
Color space : YUV Download WWE Raw 1080p
Chroma subsampling : 4:2:0
Bit depth : 8 bits
Scan type : Progressive
Bits/(Pixel*Frame) : 0.096
Stream size : 9.02 GiB (94%)
Forced : No
Color range : Limited
Color primaries : BT.709
Transfer characteristics : BT.709
Matrix coefficients : BT.709

WWE RAW 20 07 2020 Full Show

Audio
ID : 2
Format : AC-3
Format/Info : Audio Coding 3
Commercial name : Dolby Digital
Codec ID : A_AC3
Duration : 2 h 11 min
Bit rate mode : Constant
Bit rate : 448 kb/s Download WWE Raw 1080p
Channel(s) : 6 channels
Channel layout : L R C LFE Ls Rs
Sampling rate : 48.0 kHz
Frame rate : 31.250 FPS (1536 SPF)
Compression mode : Lossy
Delay relative to video : -5 ms
Stream size : 423 MiB (4%)
Title : Surround
Service kind : Complete Main
Default : Yes
Forced : No

WWE RAW 20 07 2020 Full Show

The Street Profits def. Andrade & Angel Garza

 

After getting dropped by the Raw Tag Team Champions in the backstage area, Andrade & Angel Garza were furious at the outset of the match.

However, The Street Profits brought the smoke and could not be stopped Download WWE Raw 1080p .

Montez Ford fought out of Garza’s clutches, knocked him from the top rope and connected with a breathtaking Frog Splash,

changing directions in mid-air to get the win.

 

Download 1080p WWE RAW 20 07 2020 Full Show

 

 

 

Watch online

 

 

Server 1

 

 

 

 

watch now

 

 

 

 

Server 2

 

 

 

Download WWE Raw 1080p

 

 

 

Server-3

 

 

 

Download WWE Raw 1080p

 

 

 

Uploaded By Site DX-TV.com

 

 

 

Download with premium account Links 

 

 

Keep2Share

 

 

nitroflare.com

 

 

rapidgator.net

 

 

uploadgig.com

 

 

 

dx-tv.com

 

urlfree.net

Leave a Reply

Your email address will not be published. Required fields are marked *

This site uses Akismet to reduce spam. Learn how your comment data is processed.