Free Online iMPACT Wrestling 21 07 2020 Full Show

Watch iMPACT Wrestling 2020 07 21 HDTV NWCHD DX-TV

 

Free Online Wrestling
 Free Online Wrestling

 

Free Online iMPACT Wrestling 21 07 2020 Full Show

 

 

 

Complete name : iMPACT.Wrestling.2020.07.21.HDTV.x264-NWCHD.mp4
Format : MPEG-4
Format profile : Base Media
Codec ID : isom
File size : 981 MiB Free Online Wrestling
Duration : 1 h 26 min
Overall bit rate : 1 589 kb/s
Writing application : Lavf58.27.103

 Online iMPACT Wrestling 21 07 2020 Full Show

Video
ID : 1
Format : AVC
Duration : 1 h 26 min
Bit rate : 1 400 kb/s
Width : 704 pixels
Height : 400 pixels
Display aspect ratio : 16:9
Frame rate mode : Variable
Frame rate : 29.970 (30000/1001) FPS
Minimum frame rate : 15.617 FPS
Maximum frame rate : 29.970 FPS
Color space : YUV
Chroma subsampling : 4:2:0
Bit depth : 8 bits
Scan type : Progressive
Bits/(Pixel*Frame) : 0.166
Stream size : 857 MiB (87%)
Color primaries : BT.709
Transfer characteristics : BT.709
Matrix coefficients : BT.709
Codec configuration box : avcC

Free Online iMPACT Wrestling 21 07 2020 Full Show

Audio
ID : 2
Format : AAC LC
Format/Info : Advanced
Codec ID : mp4a-40-2
Duration : 1 h 26 min
Bit rate mode : Constant
Bit rate : 192 kb/s Free Online Wrestling
Channel(s) : 2 channels
Channel layout : L R
Sampling rate : 48.0 kHz
Frame rate : 46.875 FPS (1024 SPF)
Compression mode : Lossy
Stream size : 119 MiB (12%)
Title : Stereo
Default : Yes
Alternate group : 1

 Online iMPACT Wrestling 21 07 2020 Full Show

Kiera Hogan & Tasha Steelz vs Havok & Nevaeh

 

These two teams have developed quite the rivalry over the last several weeks. Kiera and Tasha cut off the ring to wear down Nevaeh.

Just when it looks like Nevaeh is building momentum, Tasha shuts her down with a bicycle kick.

Nevaeh is finally able to make the tag but Kiera distracts the referee, causing him to miss it Free Online Wrestling .

Nevaeh has had enough and connects with a strong neckbreaker on Tasha, allowing her to tag in Havok. Free Online Wrestling

The Kaiju Queen hits a series of running knees on both of her opponents. Tasha pulls Nevaeh off the apron.

Havok is about to Tombstone Kiera when Tasha hits her in the back with a steel chair, causing the disqualification.

 

Free Online iMPACT Wrestling 21 07 2020 Full Show

 

 

 

Watch online

 

 

Server 1

 

 

 

 

watch now

 

 

 

 

Server 2

 

 

 

watch now

 

 

 

Server-3

 

 

 

Free Online Wrestling

 

 

Uploaded By Site DX-TV.com

 

 

 

Download with premium account Links 

 

 

Keep2Share

 

 

nitroflare.com

 

 

rapidgator.net

 

 

uploadgig.com

 

 

 

dx-tv.com

 

urlfree.net

Leave a Reply

Your email address will not be published. Required fields are marked *

This site uses Akismet to reduce spam. Learn how your comment data is processed.