Watch AEW DARK 17 Nov 2020 1080p Full Show Online

AEW DARK 17 Nov 2020 1080p Full Show Online DX-TV

AEW Full Show Online

 

 AEW Full Show Online

 

Watch AEW DARK 17 Nov 2020 1080p Full Show Online

 

 

[su_expand more_text=”Show More Info” less_text=”Close all Info” height=”30″ text_color=”#000000″ link_color=”#e25f8b” link_style=”button” more_icon=”icon: arrow-down” less_icon=”icon: arrow-up”]

 

Complete name : AEW.DARK.17th.Nov.2020.1080p.WEBRip.h264-TJ.mp4
Format : MPEG-4
Format profile : Base Media
Codec ID : isom
File size : 3.48 GiB
Duration : 1 h 51 min
Overall bit rate : 4 461 kb/s
Writing application : Lavf57.83

AEW Full Show Online

Video
ID : 1
Format : AVC
Duration : 1 h 51 min
Bit rate : 4 325 kb/s
Width : 1 920 pixels
Height : 1 080 pixels
Display aspect ratio : 16:9
Frame rate mode : Constant
rate : 29.970 (30000/1001) FPS
Color space : YUV
Chroma subsampling : 4:2:0
Bit depth : 8 bits
Scan type : Progressive
Bits/(Pixel*Frame) : 0.070
Stream size : 3.38 GiB (97%)
Color range : Limited
Color primaries : BT.709
Transfer characteristics : BT.709
Matrix coefficients : BT.709
Codec configuration box : avc

AEW Full Show Online

Audio
ID : 2
Format : AAC LC
Format/Info : Advanced Audio
Codec ID : mp4a-40-2
Duration : 1 h 51 min
Bit rate mode : Constant
Bit rate : 128 kb/s
Channel(s) : 2 channels
Channel layout : L R
Sampling rate : 44.1 kHz
Frame rate : 43.066 FPS
Compression mode : Lossy
Stream size : 102 MiB
Language : English
Default : Yes
Alternate group : 1

AEW Full Show Online

Exact specifics on how to get the tickets, location and time, will be e-mailed to AEW DYNAMITE ticket holders on Wednesday, November 18th.

This will be a contactless and physically distanced experience.

No personal items will be signed. Photos will be taken by AEW staff, then made available for download post meet & greet.

Fans MUST have a ticket for the November 18th DYNAMITE in order to have the opportunity to attend this FREE Meet.

and Greet session, so make sure to check your e-mail on Wednesday for the specific details. You can order your tickets at AEW

 

[/su_expand]

Watch AEW DARK 17 Nov 2020 1080p Full Show Online

 

Watch online

 

 

Server 1

 

 

 

 

 

 

 

 

Server-2

 

 

 

 

 

 

AEW Full Show Online

 

Server–3

 

 

 

 

 

 

 

 

Uploaded By Site DX-TV.com

 

 

 

 

Download Free Links with normal and high Speed [ more 14 hosts ]  

 

[su_expand more_text=”Show Hosts Info” less_text=”Close all Info” height=”30″ text_color=”#000000″ link_color=”#e25f8b” link_style=”button” more_icon=”icon: arrow-down” less_icon=”icon: arrow-up”]

AEW Full Show Online

 

hexupload.net – clicknupload.co – www.multiup.org

– uptobox.com – anonfiles.com – userscloud.com –

dropapk.to alfafile.net – ddownload.com – rockfile.co

– 1fichier.com – filedown.org – katfile.com – filerio.in

 

 

[/su_expand]

 

 

http://shrt10.com/gOY7Cqo
http://shrt10.com/SMG2HWzFW
http://shrt10.com/4IjYa
http://shrt10.com/1arTel
http://shrt10.com/ZaHu1G
http://shrt10.com/eov6yraMa

 

 

 

 

Download Links with premium High Speed   

 

 

 

 

dropapk.to

 

 

 

nitroflare.com

 

 

 

rapidgator.net

 

 

 

uploaded.net

 

 

 

uploadgig.com

 

 

 

 

 

dx-tv.com

 

urlfree.net

Leave a Reply

Your email address will not be published. Required fields are marked *

This site uses Akismet to reduce spam. Learn how your comment data is processed.