Watch Free iMPACT Wrestling 2020 11 17 Full Show /720p

Free iMPACT Wrestling 2020 11 17 HDTV NWCHD /720p DX-TV

Free iMPACT Wrestling

 

 Free iMPACT Wrestling

 

Watch Free iMPACT Wrestling 2020 11 17 Full Show /720p

 

 

[su_expand more_text=”Show More Info” less_text=”Close all Info” height=”30″ text_color=”#000000″ link_color=”#e25f8b” link_style=”button” more_icon=”icon: arrow-down” less_icon=”icon: arrow-up”]

 

Complete name : iMPACT.Wrestling.2020.11.17.720p.HDTV.x264-NWCHD.mp4
Format : MPEG-4
Format profile : Base Media
Codec ID : isom
File size : 2.77 GiB
Duration : 1 h 25 min
Overall bit rate : 4 635 kb/s
Writing application : Lavf58.51

Free iMPACT Wrestling

Video
ID : 1
Format : AVC
Duration : 1 h 25 min
Bit rate : 4 500 kb/s
Width : 1 280 pixels
Height : 720 pixels
Display aspect ratio : 16:9
Frame rate mode : Variable
Frame rate : 29.970 FPS
Color space : YUV
Chroma subsampling : 4:2:0
Bit depth : 8 bits
Scan type : Progressive
Bits/(Pixel*Frame) : 0.163
Stream size : 2.65 GiB (96%)
Transfer characteristics : BT.709
Matrix coefficients : BT.709
Codec configuration box : avc

Free iMPACT Wrestling

Audio
ID : 2
Format : AAC LC
Format/Info : Advanced Audio
Codec ID : mp4a-40-2
Duration : 1 h 25 min
Bit rate mode : Constant
Bit rate : 192 kb/s
Channel(s) : 2 channels
Channel layout : L R
Sampling rate : 48.0 kHz
Frame rate : 46.875 FPS
Compression mode : Lossy
Stream size : 118 MiB
Title : Stereo
Language : English
Default : Yes
Alternate group : 1

Free iMPACT Wrestling

Brian Myers def Crazzy Steve

Detective Dreamer accuses Johnny Swinger of shooting John E Bravo after Swinger willingly shows him the gun in his fanny pack!

Swinger denies the accusations but Dreamer isn’t buying it. Next week, Wrestlers Court returns!

Alisha & Tenille Dashwood w/ Kaleb With a K vs Havok & Nevaeh – Knockouts Tag Team Title Tournament

The Knockouts Tag Team Title Tournament begins as the odd-couple pairing of Tenille Dashwood.

and Alisha battle the longtime devastating duo of Havok and Nevaeh!

Free iMPACT Wrestling

Tenille and Alisha display great teamwork in the early going as they deliver a double vertical suplex to Nevaeh.

Tenille adds insult to injury with the Dashwoogie, followed by the low crossbody in the corner.

Alisha hits Havok with a wheel barrel Flatliner but Havok comes right back with a thunderous swinging slam!

Alisha takes a page of out Tenille’s playbook with a low crossbody of her own to Havok! Tenille saves Alisha from the Tombstone Piledriver.

Tenille avoids a clothesline by throwing Alisha into it as she retreats to safety.

Havok and Nevaeh put Alisha away with an impressive double team finisher to advance.

 

 

 

[/su_expand]
 

Watch Free iMPACT Wrestling 2020 11 17 Full Show /720p

 

Watch online

 

 

Server 1

 

 

 

 

 

 

 

 

Server-2

 

 

 

 

 

 

Free iMPACT Wrestling

 

Server–3

 

 

 

 

 

 

 

 

Uploaded By Site DX-TV.com

 

 

 

 

Download Free Links with normal and high Speed [ more 14 hosts ]  

 

[su_expand more_text=”Show Hosts Info” less_text=”Close all Info” height=”30″ text_color=”#000000″ link_color=”#e25f8b” link_style=”button” more_icon=”icon: arrow-down” less_icon=”icon: arrow-up”]

Free iMPACT Wrestling

 

hexupload.net – clicknupload.co – www.multiup.org

– uptobox.com – anonfiles.com – userscloud.com –

 

 

[/su_expand]

 

400p

http://shrt10.com/t1P30KbTa
http://shrt10.com/fRC7z
http://shrt10.com/EuNhJX30Z
http://shrt10.com/WDYcO
http://shrt10.com/EDza5y
http://shrt10.com/bZi1RN
http://shrt10.com/uxnBfd
http://shrt10.com/P1VYlrN

 

720p

 

http://shrt10.com/qc0d2MRK7
http://shrt10.com/IyqWltwT
http://shrt10.com/mo9yfCv
http://shrt10.com/s3gGPS
http://shrt10.com/Akt5hVG8v
http://shrt10.com/y9lXu

 

 

 

Free iMPACT Wrestling

Download Links with premium High Speed   

 

 

 

 

dropapk.to

http://shrt10.com/NkHZ6
http://shrt10.com/gvlMJ1d

 

 

nitroflare.com

http://shrt10.com/vdllDeyNV
http://shrt10.com/IiHRC

 

 

rapidgator.net

http://shrt10.com/EcNjhL
http://shrt10.com/LC9PC

 

 

uploaded.net

http://shrt10.com/9kNqjE
http://shrt10.com/8sfeqtAk

 

 

uploadgig.com

http://shrt10.com/vjjtv
http://shrt10.com/3PBFa8ch

 

 

 

 

dx-tv.com

 

urlfree.net

Leave a Reply

Your email address will not be published. Required fields are marked *

This site uses Akismet to reduce spam. Learn how your comment data is processed.