Download WWE Raw 16 11 2020 1080p Full Show

Watch WWE Raw 2020 11 16 1080p HDTV Star DX-TV

WWE Raw 16 11 2020

 

 WWE Raw 16 11 2020

 

Download WWE Raw 16 11 2020 1080p Full Show

 

 

[su_expand more_text=”Show More Info” less_text=”Close all Info” height=”30″ text_color=”#000000″ link_color=”#e25f8b” link_style=”button” more_icon=”icon: arrow-down” less_icon=”icon: arrow-up”]

 

Complete name : WWE.Monday.Night.Raw.2020.11.16.1080p.HDTV.x264-Star.mkv
Format : Matroska
Format version : Version 4
File size : 9.40 GiB
Duration : 2 h 10 min
Overall bit rate : 10.3 Mb/s

WWE Raw 16 11 2020

Video
ID : 1
Format : AVC
Duration : 2 h 10 min
Bit rate : 10 000 kb/s
Width : 1 920 pixels
Height : 1 080 pixels
Display aspect ratio : 16:9
Frame rate mode : Constant
Frame rate : 29.970 FPS
Color space : YUV
Chroma subsampling : 4:2:0
Bit depth : 8 bits
Scan type : Progressive
Bits/(Pixel*Frame) : 0.161
Stream size : 8.98 GiB (96%)
Color range : Limited
Color primaries : BT.709
Transfer characteristics : BT.709
Matrix coefficients : BT.709

WWE Raw 16 11 2020

Audio
ID : 2
Format : AC-3
Format/Info : Audio Coding 3
name : Dolby Digital
Codec ID : A_AC3
Duration : 2 h 10 min
Bit rate mode : Constant
Bit rate : 256 kb/s
Channel(s) : 2 channels
Channel layout : L R
Sampling rate : 48.0 kHz
Frame rate : 31.250 FPS
Compression mode : Lossy
Delay relative to video : -5 ms
Stream size : 240 MiB (2%)
Title : Stereo
Service kind : Complete Main
Default : Yes
Forced : No

WWE Raw 16 11 2020

Bray Wyatt def. The Miz

The Miz pleaded for Bray Wyatt to rethink their match, but The A-Lister should have known there is no reasoning with “The Firefly Funhouse” host.

Wyatt wore a sadistic smile early on, as he absorbed attacks from The Miz before going on the offensive.

As John Morrison tried to help out his teammate, Alexa Bliss came flying into the picture to knock him over the barricade.

Wyatt would turn back to the ring and smash The Miz with a Sister Abigail to claim the win.

WWE Raw 16 11 2020

Drew McIntyre def. Randy Orton  – WWE Championship Match

Drew McIntyre had consumed with his quest to reclaim the WWE Championship since his loss to Randy Orton at WWE Hell in a Cell.

The Scottish Sword brought his sword to a fistfight, and The Viper was caught off guard early on.

As Orton seemed content to take a count-out loss to retain his title, Adam Pearce declared the match would continue with no disqualifications.

After a grueling back-and-forth, McIntyre’s smash of The Legend Killer through a table appeared to shifty the dynamic of the match.

Orton would dodge three separate Claymore Kick attempts, but the final one wouldn’t miss as McIntyre connected to reclaim the WWE Title.

and set a clash with Roman Reigns for Survivor Series.

 

 

[/su_expand]
 

Download WWE Raw 16 11 2020 1080p Full Show

 

Watch online

 

 

Server 1

 

 

 

 

 

 

 

 

Server-2

 

 

 

 

 

WWE Raw 16 11 2020

Uploaded By Site DX-TV.com

 

Download Links with premium High Speed   

 

 

nitroflare.com

 

 

 

rapidgator.net

 

 

 

 

 

 

dx-tv.com

 

urlfree.net

Leave a Reply

Your email address will not be published. Required fields are marked *

This site uses Akismet to reduce spam. Learn how your comment data is processed.