Warrior Wrestling Stadium Series July 2021 PPV Online Free Replay DX-TV

Contents show

Warrior Wrestling Stadium Series 

 Warrior Wrestling Stadium Series July 2021

 

 

 

Download Links with premium High Speed


 

Dopapk

 

 

Show Links

 

http://shrt10.com/7C63Xy0
http://shrt10.com/cJ18qc6i

 

[collapse]

 

 

Nitroflare

 

 

Show Links

 

http://shrt10.com/2Nw4ZlH
http://shrt10.com/Anns0

 

[collapse]

 

 

Rapidgator

 

 

Show Links

 

http://shrt10.com/bGtxEz
http://shrt10.com/4tkvmg2

 

[collapse]

 

 

Uploaded

 

 

Show Links

 

http://shrt10.com/Dvh35M
http://shrt10.com/Hdrs1A

 

[collapse]

 

 

Watch online

 

Server 1

 

 

 

 

Warrior Wrestling Stadium Series July 2021

 

 

 

 

Server-2

 

 

 

 

watch now

 

 

 

|Server-3

 

 

 

 

watch now

 

 

Uploaded By Site DX-TV.com

 

 

Show Info This Show

Warrior Wrestling Stadium Series 

 

Complete name : Warrior Wrestling Stadium Series July 2021 PPV 720p By DX-TV.com.mp4
Format : MPEG-4
Format profile : Base Media
Codec ID : isom
File size : 2.78 GiB
Duration : 3 h 7 min
Overall bit rate : 2 129 kb/s

Video
ID : 1
Format : AVC
Format/Info : Advanced Video
Duration : 3 h 7 min
Source duration : 3 h 7 min
Bit rate : 2 024 kb/s
Width : 1 280 pixels
Height : 720 pixels
Display aspect ratio : 16:9
Frame rate mode : Variable
Frame rate : 29.970 (29970/1000) FPS
Minimum frame rate : 10.000 FPS
Maximum frame rate : 30.303 FPS
Color space : YUV
Chroma subsampling : 4:2:0
Bit depth : 8 bits
Scan type : Progressive
Bits/(Pixel*Frame) : 0.073
Stream size : 2.65 GiB (95%)
Source stream size : 2.65 GiB (95%)
mdhd_Duration : 11228317
Codec configuration box : avcC

Warrior Wrestling Stadium Series 

Audio
ID : 2
Format : AAC LC
Codec ID : mp4a-40-2
Duration : 3 h 7 min
Bit rate mode : Constant
Bit rate : 96.0 kb/s
Channel(s) : 2 channels
Channel layout : L R
Sampling rate : 48.0 kHz
Frame rate : 46.875 FPS
Compression mode : Lossy
Stream size : 127 MiB (4%)
Default : Yes
Alternate group : 1

Complete name : Warrior Wrestling Stadium Series July 2021 PPV SD.mp4
Format : MPEG-4
Format profile : Base Media
Codec ID : isom
File size : 1.34 GiB
Duration : 3 h 7 min
Overall bit rate : 1 026 kb/s

Warrior Wrestling Stadium Series 

Video
ID : 1
Format : AVC
Format/Info : Advanced Video
Duration : 3 h 7 min
Bit rate : 926 kb/s
Width : 850 pixels
Height : 480 pixels
Display aspect ratio : 16:9
Frame rate mode : Constant
Frame rate : 25.000 FPS
Color space : YUV
Chroma subsampling : 4:2:0
Bit depth : 8 bits
Scan type : Progressive
Bits/(Pixel*Frame) : 0.091
Stream size : 1.21 GiB (90%)

Warrior Wrestling Stadium Series 

Audio
ID : 2
Format : AAC LC
Format/Info : Advanced Audio
Codec ID : mp4a-40-2
Duration : 3 h 7 min
Bit rate mode : Constant
Bit rate : 96.0 kb/s
Channel(s) : 2 channels
Channel layout : L R
Sampling rate : 44.1 kHz
Frame rate : 43.066 FPS
Compression mode : Lossy
Stream size : 128 MiB (9%)
Default : Yes
Alternate group : 1

Warrior Wrestling Stadium Series 

Complete name : Warrior Wrestling Stadium Series July 2021 PPV 720p By DX-TV.com.mp4
Format : MPEG-4
Format profile : Base Media
Codec ID : isom
File size : 2.78 GiB
Duration : 3 h 7 min
Overall bit rate : 2 129 kb/s

Video
ID : 1
Format : AVC
Format/Info : Advanced Video
Duration : 3 h 7 min
Source duration : 3 h 7 min
Bit rate : 2 024 kb/s
Width : 1 280 pixels
Height : 720 pixels
Display aspect ratio : 16:9
Frame rate mode : Variable
Frame rate : 29.970 (29970/1000) FPS
Minimum frame rate : 10.000 FPS
Maximum frame rate : 30.303 FPS
Color space : YUV
Chroma subsampling : 4:2:0
Bit depth : 8 bits
Scan type : Progressive
Bits/(Pixel*Frame) : 0.073
Stream size : 2.65 GiB (95%)
Source stream size : 2.65 GiB (95%)
mdhd_Duration : 11228317
Codec configuration box : avcC

Warrior Wrestling Stadium Series 

Audio
ID : 2
Format : AAC LC
Codec ID : mp4a-40-2
Duration : 3 h 7 min
Bit rate mode : Constant
Bit rate : 96.0 kb/s
Channel(s) : 2 channels
Channel layout : L R
Sampling rate : 48.0 kHz
Frame rate : 46.875 FPS
Compression mode : Lossy
Stream size : 127 MiB (4%)
Default : Yes
Alternate group : 1

Complete name : Warrior Wrestling Stadium Series July 2021 PPV SD.mp4
Format : MPEG-4
Format profile : Base Media
Codec ID : isom
File size : 1.34 GiB
Duration : 3 h 7 min
Overall bit rate : 1 026 kb/s

Warrior Wrestling Stadium Series 

Video
ID : 1
Format : AVC
Format/Info : Advanced Video
Duration : 3 h 7 min
Bit rate : 926 kb/s
Width : 850 pixels
Height : 480 pixels
Display aspect ratio : 16:9
Frame rate mode : Constant
Frame rate : 25.000 FPS
Color space : YUV
Chroma subsampling : 4:2:0
Bit depth : 8 bits
Scan type : Progressive
Bits/(Pixel*Frame) : 0.091
Stream size : 1.21 GiB (90%)

Warrior Wrestling Stadium Series 

Audio
ID : 2
Format : AAC LC
Format/Info : Advanced Audio
Codec ID : mp4a-40-2
Duration : 3 h 7 min
Bit rate mode : Constant
Bit rate : 96.0 kb/s
Channel(s) : 2 channels
Channel layout : L R
Sampling rate : 44.1 kHz
Frame rate : 43.066 FPS
Compression mode : Lossy
Stream size : 128 MiB (9%)
Default : Yes
Alternate group : 1

Warrior Wrestling Stadium Series 

Complete name : Warrior Wrestling Stadium Series July 2021 PPV 720p By DX-TV.com.mp4
Format : MPEG-4
Format profile : Base Media
Codec ID : isom
File size : 2.78 GiB
Duration : 3 h 7 min
Overall bit rate : 2 129 kb/s

Video
ID : 1
Format : AVC
Format/Info : Advanced Video
Duration : 3 h 7 min
Source duration : 3 h 7 min
Bit rate : 2 024 kb/s
Width : 1 280 pixels
Height : 720 pixels
Display aspect ratio : 16:9
Frame rate mode : Variable
Frame rate : 29.970 (29970/1000) FPS
Minimum frame rate : 10.000 FPS
Maximum frame rate : 30.303 FPS
Color space : YUV
Chroma subsampling : 4:2:0
Bit depth : 8 bits
Scan type : Progressive
Bits/(Pixel*Frame) : 0.073
Stream size : 2.65 GiB (95%)
Source stream size : 2.65 GiB (95%)
mdhd_Duration : 11228317
Codec configuration box : avcC

Warrior Wrestling Stadium Series 

Audio
ID : 2
Format : AAC LC
Codec ID : mp4a-40-2
Duration : 3 h 7 min
Bit rate mode : Constant
Bit rate : 96.0 kb/s
Channel(s) : 2 channels
Channel layout : L R
Sampling rate : 48.0 kHz
Frame rate : 46.875 FPS
Compression mode : Lossy
Stream size : 127 MiB (4%)
Default : Yes
Alternate group : 1

Complete name : Warrior Wrestling Stadium Series July 2021 PPV SD.mp4
Format : MPEG-4
Format profile : Base Media
Codec ID : isom
File size : 1.34 GiB
Duration : 3 h 7 min
Overall bit rate : 1 026 kb/s

Warrior Wrestling Stadium Series 

Video
ID : 1
Format : AVC
Format/Info : Advanced Video
Duration : 3 h 7 min
Bit rate : 926 kb/s
Width : 850 pixels
Height : 480 pixels
Display aspect ratio : 16:9
Frame rate mode : Constant
Frame rate : 25.000 FPS
Color space : YUV
Chroma subsampling : 4:2:0
Bit depth : 8 bits
Scan type : Progressive
Bits/(Pixel*Frame) : 0.091
Stream size : 1.21 GiB (90%)

Warrior Wrestling Stadium Series 

Audio
ID : 2
Format : AAC LC
Format/Info : Advanced Audio
Codec ID : mp4a-40-2
Duration : 3 h 7 min
Bit rate mode : Constant
Bit rate : 96.0 kb/s
Channel(s) : 2 channels
Channel layout : L R
Sampling rate : 44.1 kHz
Frame rate : 43.066 FPS
Compression mode : Lossy
Stream size : 128 MiB (9%)
Default : Yes
Alternate group : 1

Warrior Wrestling Stadium Series 

Complete name : Warrior Wrestling Stadium Series July 2021 PPV 720p By DX-TV.com.mp4
Format : MPEG-4
Format profile : Base Media
Codec ID : isom
File size : 2.78 GiB
Duration : 3 h 7 min
Overall bit rate : 2 129 kb/s

Video
ID : 1
Format : AVC
Format/Info : Advanced Video
Duration : 3 h 7 min
Source duration : 3 h 7 min
Bit rate : 2 024 kb/s
Width : 1 280 pixels
Height : 720 pixels
Display aspect ratio : 16:9
Frame rate mode : Variable
Frame rate : 29.970 (29970/1000) FPS
Minimum frame rate : 10.000 FPS
Maximum frame rate : 30.303 FPS
Color space : YUV
Chroma subsampling : 4:2:0
Bit depth : 8 bits
Scan type : Progressive
Bits/(Pixel*Frame) : 0.073
Stream size : 2.65 GiB (95%)
Source stream size : 2.65 GiB (95%)
mdhd_Duration : 11228317
Codec configuration box : avcC

Warrior Wrestling Stadium Series 

Audio
ID : 2
Format : AAC LC
Codec ID : mp4a-40-2
Duration : 3 h 7 min
Bit rate mode : Constant
Bit rate : 96.0 kb/s
Channel(s) : 2 channels
Channel layout : L R
Sampling rate : 48.0 kHz
Frame rate : 46.875 FPS
Compression mode : Lossy
Stream size : 127 MiB (4%)
Default : Yes
Alternate group : 1

Complete name : Warrior Wrestling Stadium Series July 2021 PPV SD.mp4
Format : MPEG-4
Format profile : Base Media
Codec ID : isom
File size : 1.34 GiB
Duration : 3 h 7 min
Overall bit rate : 1 026 kb/s

Warrior Wrestling Stadium Series 

Video
ID : 1
Format : AVC
Format/Info : Advanced Video
Duration : 3 h 7 min
Bit rate : 926 kb/s
Width : 850 pixels
Height : 480 pixels
Display aspect ratio : 16:9
Frame rate mode : Constant
Frame rate : 25.000 FPS
Color space : YUV
Chroma subsampling : 4:2:0
Bit depth : 8 bits
Scan type : Progressive
Bits/(Pixel*Frame) : 0.091
Stream size : 1.21 GiB (90%)

Warrior Wrestling Stadium Series 

Audio
ID : 2
Format : AAC LC
Format/Info : Advanced Audio
Codec ID : mp4a-40-2
Duration : 3 h 7 min
Bit rate mode : Constant
Bit rate : 96.0 kb/s
Channel(s) : 2 channels
Channel layout : L R
Sampling rate : 44.1 kHz
Frame rate : 43.066 FPS
Compression mode : Lossy
Stream size : 128 MiB (9%)
Default : Yes
Alternate group : 1

Warrior Wrestling Stadium Series 

Complete name : Warrior Wrestling Stadium Series July 2021 PPV 720p By DX-TV.com.mp4
Format : MPEG-4
Format profile : Base Media
Codec ID : isom
File size : 2.78 GiB
Duration : 3 h 7 min
Overall bit rate : 2 129 kb/s

Video
ID : 1
Format : AVC
Format/Info : Advanced Video
Duration : 3 h 7 min
Source duration : 3 h 7 min
Bit rate : 2 024 kb/s
Width : 1 280 pixels
Height : 720 pixels
Display aspect ratio : 16:9
Frame rate mode : Variable
Frame rate : 29.970 (29970/1000) FPS
Minimum frame rate : 10.000 FPS
Maximum frame rate : 30.303 FPS
Color space : YUV
Chroma subsampling : 4:2:0
Bit depth : 8 bits
Scan type : Progressive
Bits/(Pixel*Frame) : 0.073
Stream size : 2.65 GiB (95%)
Source stream size : 2.65 GiB (95%)
mdhd_Duration : 11228317
Codec configuration box : avcC

Warrior Wrestling Stadium Series 

Audio
ID : 2
Format : AAC LC
Codec ID : mp4a-40-2
Duration : 3 h 7 min
Bit rate mode : Constant
Bit rate : 96.0 kb/s
Channel(s) : 2 channels
Channel layout : L R
Sampling rate : 48.0 kHz
Frame rate : 46.875 FPS
Compression mode : Lossy
Stream size : 127 MiB (4%)
Default : Yes
Alternate group : 1

Complete name : Warrior Wrestling Stadium Series July 2021 PPV SD.mp4
Format : MPEG-4
Format profile : Base Media
Codec ID : isom
File size : 1.34 GiB
Duration : 3 h 7 min
Overall bit rate : 1 026 kb/s

Warrior Wrestling Stadium Series 

Video
ID : 1
Format : AVC
Format/Info : Advanced Video
Duration : 3 h 7 min
Bit rate : 926 kb/s
Width : 850 pixels
Height : 480 pixels
Display aspect ratio : 16:9
Frame rate mode : Constant
Frame rate : 25.000 FPS
Color space : YUV
Chroma subsampling : 4:2:0
Bit depth : 8 bits
Scan type : Progressive
Bits/(Pixel*Frame) : 0.091
Stream size : 1.21 GiB (90%)

Warrior Wrestling Stadium Series 

Audio
ID : 2
Format : AAC LC
Format/Info : Advanced Audio
Codec ID : mp4a-40-2
Duration : 3 h 7 min
Bit rate mode : Constant
Bit rate : 96.0 kb/s
Channel(s) : 2 channels
Channel layout : L R
Sampling rate : 44.1 kHz
Frame rate : 43.066 FPS
Compression mode : Lossy
Stream size : 128 MiB (9%)
Default : Yes
Alternate group : 1

Warrior Wrestling Stadium Series 

Complete name : Warrior Wrestling Stadium Series July 2021 PPV 720p By DX-TV.com.mp4
Format : MPEG-4
Format profile : Base Media
Codec ID : isom
File size : 2.78 GiB
Duration : 3 h 7 min
Overall bit rate : 2 129 kb/s

Video
ID : 1
Format : AVC
Format/Info : Advanced Video
Duration : 3 h 7 min
Source duration : 3 h 7 min
Bit rate : 2 024 kb/s
Width : 1 280 pixels
Height : 720 pixels
Display aspect ratio : 16:9
Frame rate mode : Variable
Frame rate : 29.970 (29970/1000) FPS
Minimum frame rate : 10.000 FPS
Maximum frame rate : 30.303 FPS
Color space : YUV
Chroma subsampling : 4:2:0
Bit depth : 8 bits
Scan type : Progressive
Bits/(Pixel*Frame) : 0.073
Stream size : 2.65 GiB (95%)
Source stream size : 2.65 GiB (95%)
mdhd_Duration : 11228317
Codec configuration box : avcC

Warrior Wrestling Stadium Series 

Audio
ID : 2
Format : AAC LC
Codec ID : mp4a-40-2
Duration : 3 h 7 min
Bit rate mode : Constant
Bit rate : 96.0 kb/s
Channel(s) : 2 channels
Channel layout : L R
Sampling rate : 48.0 kHz
Frame rate : 46.875 FPS
Compression mode : Lossy
Stream size : 127 MiB (4%)
Default : Yes
Alternate group : 1

Complete name : Warrior Wrestling Stadium Series July 2021 PPV SD.mp4
Format : MPEG-4
Format profile : Base Media
Codec ID : isom
File size : 1.34 GiB
Duration : 3 h 7 min
Overall bit rate : 1 026 kb/s

Warrior Wrestling Stadium Series 

Video
ID : 1
Format : AVC
Format/Info : Advanced Video
Duration : 3 h 7 min
Bit rate : 926 kb/s
Width : 850 pixels
Height : 480 pixels
Display aspect ratio : 16:9
Frame rate mode : Constant
Frame rate : 25.000 FPS
Color space : YUV
Chroma subsampling : 4:2:0
Bit depth : 8 bits
Scan type : Progressive
Bits/(Pixel*Frame) : 0.091
Stream size : 1.21 GiB (90%)

Warrior Wrestling Stadium Series 

Audio
ID : 2
Format : AAC LC
Format/Info : Advanced Audio
Codec ID : mp4a-40-2
Duration : 3 h 7 min
Bit rate mode : Constant
Bit rate : 96.0 kb/s
Channel(s) : 2 channels
Channel layout : L R
Sampling rate : 44.1 kHz
Frame rate : 43.066 FPS
Compression mode : Lossy
Stream size : 128 MiB (9%)
Default : Yes
Alternate group : 1

Warrior Wrestling Stadium Series 

Complete name : Warrior Wrestling Stadium Series July 2021 PPV 720p By DX-TV.com.mp4
Format : MPEG-4
Format profile : Base Media
Codec ID : isom
File size : 2.78 GiB
Duration : 3 h 7 min
Overall bit rate : 2 129 kb/s

Video
ID : 1
Format : AVC
Format/Info : Advanced Video
Duration : 3 h 7 min
Source duration : 3 h 7 min
Bit rate : 2 024 kb/s
Width : 1 280 pixels
Height : 720 pixels
Display aspect ratio : 16:9
Frame rate mode : Variable
Frame rate : 29.970 (29970/1000) FPS
Minimum frame rate : 10.000 FPS
Maximum frame rate : 30.303 FPS
Color space : YUV
Chroma subsampling : 4:2:0
Bit depth : 8 bits
Scan type : Progressive
Bits/(Pixel*Frame) : 0.073
Stream size : 2.65 GiB (95%)
Source stream size : 2.65 GiB (95%)
mdhd_Duration : 11228317
Codec configuration box : avcC

Warrior Wrestling Stadium Series 

Audio
ID : 2
Format : AAC LC
Codec ID : mp4a-40-2
Duration : 3 h 7 min
Bit rate mode : Constant
Bit rate : 96.0 kb/s
Channel(s) : 2 channels
Channel layout : L R
Sampling rate : 48.0 kHz
Frame rate : 46.875 FPS
Compression mode : Lossy
Stream size : 127 MiB (4%)
Default : Yes
Alternate group : 1

Complete name : Warrior Wrestling Stadium Series July 2021 PPV SD.mp4
Format : MPEG-4
Format profile : Base Media
Codec ID : isom
File size : 1.34 GiB
Duration : 3 h 7 min
Overall bit rate : 1 026 kb/s

Warrior Wrestling Stadium Series 

Video
ID : 1
Format : AVC
Format/Info : Advanced Video
Duration : 3 h 7 min
Bit rate : 926 kb/s
Width : 850 pixels
Height : 480 pixels
Display aspect ratio : 16:9
Frame rate mode : Constant
Frame rate : 25.000 FPS
Color space : YUV
Chroma subsampling : 4:2:0
Bit depth : 8 bits
Scan type : Progressive
Bits/(Pixel*Frame) : 0.091
Stream size : 1.21 GiB (90%)

Warrior Wrestling Stadium Series 

Audio
ID : 2
Format : AAC LC
Format/Info : Advanced Audio
Codec ID : mp4a-40-2
Duration : 3 h 7 min
Bit rate mode : Constant
Bit rate : 96.0 kb/s
Channel(s) : 2 channels
Channel layout : L R
Sampling rate : 44.1 kHz
Frame rate : 43.066 FPS
Compression mode : Lossy
Stream size : 128 MiB (9%)
Default : Yes
Alternate group : 1

Warrior Wrestling Stadium Series 

Complete name : Warrior Wrestling Stadium Series July 2021 PPV 720p By DX-TV.com.mp4
Format : MPEG-4
Format profile : Base Media
Codec ID : isom
File size : 2.78 GiB
Duration : 3 h 7 min
Overall bit rate : 2 129 kb/s

Video
ID : 1
Format : AVC
Format/Info : Advanced Video
Duration : 3 h 7 min
Source duration : 3 h 7 min
Bit rate : 2 024 kb/s
Width : 1 280 pixels
Height : 720 pixels
Display aspect ratio : 16:9
Frame rate mode : Variable
Frame rate : 29.970 (29970/1000) FPS
Minimum frame rate : 10.000 FPS
Maximum frame rate : 30.303 FPS
Color space : YUV
Chroma subsampling : 4:2:0
Bit depth : 8 bits
Scan type : Progressive
Bits/(Pixel*Frame) : 0.073
Stream size : 2.65 GiB (95%)
Source stream size : 2.65 GiB (95%)
mdhd_Duration : 11228317
Codec configuration box : avcC

Warrior Wrestling Stadium Series 

Audio
ID : 2
Format : AAC LC
Codec ID : mp4a-40-2
Duration : 3 h 7 min
Bit rate mode : Constant
Bit rate : 96.0 kb/s
Channel(s) : 2 channels
Channel layout : L R
Sampling rate : 48.0 kHz
Frame rate : 46.875 FPS
Compression mode : Lossy
Stream size : 127 MiB (4%)
Default : Yes
Alternate group : 1

Complete name : Warrior Wrestling Stadium Series July 2021 PPV SD.mp4
Format : MPEG-4
Format profile : Base Media
Codec ID : isom
File size : 1.34 GiB
Duration : 3 h 7 min
Overall bit rate : 1 026 kb/s

Warrior Wrestling Stadium Series 

Video
ID : 1
Format : AVC
Format/Info : Advanced Video
Duration : 3 h 7 min
Bit rate : 926 kb/s
Width : 850 pixels
Height : 480 pixels
Display aspect ratio : 16:9
Frame rate mode : Constant
Frame rate : 25.000 FPS
Color space : YUV
Chroma subsampling : 4:2:0
Bit depth : 8 bits
Scan type : Progressive
Bits/(Pixel*Frame) : 0.091
Stream size : 1.21 GiB (90%)

Warrior Wrestling Stadium Series 

Audio
ID : 2
Format : AAC LC
Format/Info : Advanced Audio
Codec ID : mp4a-40-2
Duration : 3 h 7 min
Bit rate mode : Constant
Bit rate : 96.0 kb/s
Channel(s) : 2 channels
Channel layout : L R
Sampling rate : 44.1 kHz
Frame rate : 43.066 FPS
Compression mode : Lossy
Stream size : 128 MiB (9%)
Default : Yes
Alternate group : 1

Warrior Wrestling Stadium Series 

Complete name : Warrior Wrestling Stadium Series July 2021 PPV 720p By DX-TV.com.mp4
Format : MPEG-4
Format profile : Base Media
Codec ID : isom
File size : 2.78 GiB
Duration : 3 h 7 min
Overall bit rate : 2 129 kb/s

Video
ID : 1
Format : AVC
Format/Info : Advanced Video
Duration : 3 h 7 min
Source duration : 3 h 7 min
Bit rate : 2 024 kb/s
Width : 1 280 pixels
Height : 720 pixels
Display aspect ratio : 16:9
Frame rate mode : Variable
Frame rate : 29.970 (29970/1000) FPS
Minimum frame rate : 10.000 FPS
Maximum frame rate : 30.303 FPS
Color space : YUV
Chroma subsampling : 4:2:0
Bit depth : 8 bits
Scan type : Progressive
Bits/(Pixel*Frame) : 0.073
Stream size : 2.65 GiB (95%)
Source stream size : 2.65 GiB (95%)
mdhd_Duration : 11228317
Codec configuration box : avcC

Warrior Wrestling Stadium Series 

Audio
ID : 2
Format : AAC LC
Codec ID : mp4a-40-2
Duration : 3 h 7 min
Bit rate mode : Constant
Bit rate : 96.0 kb/s
Channel(s) : 2 channels
Channel layout : L R
Sampling rate : 48.0 kHz
Frame rate : 46.875 FPS
Compression mode : Lossy
Stream size : 127 MiB (4%)
Default : Yes
Alternate group : 1

Complete name : Warrior Wrestling Stadium Series July 2021 PPV SD.mp4
Format : MPEG-4
Format profile : Base Media
Codec ID : isom
File size : 1.34 GiB
Duration : 3 h 7 min
Overall bit rate : 1 026 kb/s

Warrior Wrestling Stadium Series 

Video
ID : 1
Format : AVC
Format/Info : Advanced Video
Duration : 3 h 7 min
Bit rate : 926 kb/s
Width : 850 pixels
Height : 480 pixels
Display aspect ratio : 16:9
Frame rate mode : Constant
Frame rate : 25.000 FPS
Color space : YUV
Chroma subsampling : 4:2:0
Bit depth : 8 bits
Scan type : Progressive
Bits/(Pixel*Frame) : 0.091
Stream size : 1.21 GiB (90%)

Warrior Wrestling Stadium Series 

Audio
ID : 2
Format : AAC LC
Format/Info : Advanced Audio
Codec ID : mp4a-40-2
Duration : 3 h 7 min
Bit rate mode : Constant
Bit rate : 96.0 kb/s
Channel(s) : 2 channels
Channel layout : L R
Sampling rate : 44.1 kHz
Frame rate : 43.066 FPS
Compression mode : Lossy
Stream size : 128 MiB (9%)
Default : Yes
Alternate group : 1

Warrior Wrestling Stadium Series 

Complete name : Warrior Wrestling Stadium Series July 2021 PPV 720p By DX-TV.com.mp4
Format : MPEG-4
Format profile : Base Media
Codec ID : isom
File size : 2.78 GiB
Duration : 3 h 7 min
Overall bit rate : 2 129 kb/s

Video
ID : 1
Format : AVC
Format/Info : Advanced Video
Duration : 3 h 7 min
Source duration : 3 h 7 min
Bit rate : 2 024 kb/s
Width : 1 280 pixels
Height : 720 pixels
Display aspect ratio : 16:9
Frame rate mode : Variable
Frame rate : 29.970 (29970/1000) FPS
Minimum frame rate : 10.000 FPS
Maximum frame rate : 30.303 FPS
Color space : YUV
Chroma subsampling : 4:2:0
Bit depth : 8 bits
Scan type : Progressive
Bits/(Pixel*Frame) : 0.073
Stream size : 2.65 GiB (95%)
Source stream size : 2.65 GiB (95%)
mdhd_Duration : 11228317
Codec configuration box : avcC

Warrior Wrestling Stadium Series 

Audio
ID : 2
Format : AAC LC
Codec ID : mp4a-40-2
Duration : 3 h 7 min
Bit rate mode : Constant
Bit rate : 96.0 kb/s
Channel(s) : 2 channels
Channel layout : L R
Sampling rate : 48.0 kHz
Frame rate : 46.875 FPS
Compression mode : Lossy
Stream size : 127 MiB (4%)
Default : Yes
Alternate group : 1

Complete name : Warrior Wrestling Stadium Series July 2021 PPV SD.mp4
Format : MPEG-4
Format profile : Base Media
Codec ID : isom
File size : 1.34 GiB
Duration : 3 h 7 min
Overall bit rate : 1 026 kb/s

Warrior Wrestling Stadium Series 

Video
ID : 1
Format : AVC
Format/Info : Advanced Video
Duration : 3 h 7 min
Bit rate : 926 kb/s
Width : 850 pixels
Height : 480 pixels
Display aspect ratio : 16:9
Frame rate mode : Constant
Frame rate : 25.000 FPS
Color space : YUV
Chroma subsampling : 4:2:0
Bit depth : 8 bits
Scan type : Progressive
Bits/(Pixel*Frame) : 0.091
Stream size : 1.21 GiB (90%)

Warrior Wrestling Stadium Series 

Audio
ID : 2
Format : AAC LC
Format/Info : Advanced Audio
Codec ID : mp4a-40-2
Duration : 3 h 7 min
Bit rate mode : Constant
Bit rate : 96.0 kb/s
Channel(s) : 2 channels
Channel layout : L R
Sampling rate : 44.1 kHz
Frame rate : 43.066 FPS
Compression mode : Lossy
Stream size : 128 MiB (9%)
Default : Yes
Alternate group : 1

Warrior Wrestling Stadium Series 

Complete name : Warrior Wrestling Stadium Series July 2021 PPV 720p By DX-TV.com.mp4
Format : MPEG-4
Format profile : Base Media
Codec ID : isom
File size : 2.78 GiB
Duration : 3 h 7 min
Overall bit rate : 2 129 kb/s

Video
ID : 1
Format : AVC
Format/Info : Advanced Video
Duration : 3 h 7 min
Source duration : 3 h 7 min
Bit rate : 2 024 kb/s
Width : 1 280 pixels
Height : 720 pixels
Display aspect ratio : 16:9
Frame rate mode : Variable
Frame rate : 29.970 (29970/1000) FPS
Minimum frame rate : 10.000 FPS
Maximum frame rate : 30.303 FPS
Color space : YUV
Chroma subsampling : 4:2:0
Bit depth : 8 bits
Scan type : Progressive
Bits/(Pixel*Frame) : 0.073
Stream size : 2.65 GiB (95%)
Source stream size : 2.65 GiB (95%)
mdhd_Duration : 11228317
Codec configuration box : avcC

Warrior Wrestling Stadium Series 

Audio
ID : 2
Format : AAC LC
Codec ID : mp4a-40-2
Duration : 3 h 7 min
Bit rate mode : Constant
Bit rate : 96.0 kb/s
Channel(s) : 2 channels
Channel layout : L R
Sampling rate : 48.0 kHz
Frame rate : 46.875 FPS
Compression mode : Lossy
Stream size : 127 MiB (4%)
Default : Yes
Alternate group : 1

Complete name : Warrior Wrestling Stadium Series July 2021 PPV SD.mp4
Format : MPEG-4
Format profile : Base Media
Codec ID : isom
File size : 1.34 GiB
Duration : 3 h 7 min
Overall bit rate : 1 026 kb/s

Warrior Wrestling Stadium Series 

Video
ID : 1
Format : AVC
Format/Info : Advanced Video
Duration : 3 h 7 min
Bit rate : 926 kb/s
Width : 850 pixels
Height : 480 pixels
Display aspect ratio : 16:9
Frame rate mode : Constant
Frame rate : 25.000 FPS
Color space : YUV
Chroma subsampling : 4:2:0
Bit depth : 8 bits
Scan type : Progressive
Bits/(Pixel*Frame) : 0.091
Stream size : 1.21 GiB (90%)

Warrior Wrestling Stadium Series 

Audio
ID : 2
Format : AAC LC
Format/Info : Advanced Audio
Codec ID : mp4a-40-2
Duration : 3 h 7 min
Bit rate mode : Constant
Bit rate : 96.0 kb/s
Channel(s) : 2 channels
Channel layout : L R
Sampling rate : 44.1 kHz
Frame rate : 43.066 FPS
Compression mode : Lossy
Stream size : 128 MiB (9%)
Default : Yes
Alternate group : 1

Warrior Wrestling Stadium Series 

Complete name : Warrior Wrestling Stadium Series July 2021 PPV 720p By DX-TV.com.mp4
Format : MPEG-4
Format profile : Base Media
Codec ID : isom
File size : 2.78 GiB
Duration : 3 h 7 min
Overall bit rate : 2 129 kb/s

Video
ID : 1
Format : AVC
Format/Info : Advanced Video
Duration : 3 h 7 min
Source duration : 3 h 7 min
Bit rate : 2 024 kb/s
Width : 1 280 pixels
Height : 720 pixels
Display aspect ratio : 16:9
Frame rate mode : Variable
Frame rate : 29.970 (29970/1000) FPS
Minimum frame rate : 10.000 FPS
Maximum frame rate : 30.303 FPS
Color space : YUV
Chroma subsampling : 4:2:0
Bit depth : 8 bits
Scan type : Progressive
Bits/(Pixel*Frame) : 0.073
Stream size : 2.65 GiB (95%)
Source stream size : 2.65 GiB (95%)
mdhd_Duration : 11228317
Codec configuration box : avcC

Warrior Wrestling Stadium Series 

Audio
ID : 2
Format : AAC LC
Codec ID : mp4a-40-2
Duration : 3 h 7 min
Bit rate mode : Constant
Bit rate : 96.0 kb/s
Channel(s) : 2 channels
Channel layout : L R
Sampling rate : 48.0 kHz
Frame rate : 46.875 FPS
Compression mode : Lossy
Stream size : 127 MiB (4%)
Default : Yes
Alternate group : 1

Complete name : Warrior Wrestling Stadium Series July 2021 PPV SD.mp4
Format : MPEG-4
Format profile : Base Media
Codec ID : isom
File size : 1.34 GiB
Duration : 3 h 7 min
Overall bit rate : 1 026 kb/s

Warrior Wrestling Stadium Series 

Video
ID : 1
Format : AVC
Format/Info : Advanced Video
Duration : 3 h 7 min
Bit rate : 926 kb/s
Width : 850 pixels
Height : 480 pixels
Display aspect ratio : 16:9
Frame rate mode : Constant
Frame rate : 25.000 FPS
Color space : YUV
Chroma subsampling : 4:2:0
Bit depth : 8 bits
Scan type : Progressive
Bits/(Pixel*Frame) : 0.091
Stream size : 1.21 GiB (90%)

Warrior Wrestling Stadium Series 

Audio
ID : 2
Format : AAC LC
Format/Info : Advanced Audio
Codec ID : mp4a-40-2
Duration : 3 h 7 min
Bit rate mode : Constant
Bit rate : 96.0 kb/s
Channel(s) : 2 channels
Channel layout : L R
Sampling rate : 44.1 kHz
Frame rate : 43.066 FPS
Compression mode : Lossy
Stream size : 128 MiB (9%)
Default : Yes
Alternate group : 1

Warrior Wrestling Stadium Series 

Complete name : Warrior Wrestling Stadium Series July 2021 PPV 720p By DX-TV.com.mp4
Format : MPEG-4
Format profile : Base Media
Codec ID : isom
File size : 2.78 GiB
Duration : 3 h 7 min
Overall bit rate : 2 129 kb/s

Video
ID : 1
Format : AVC
Format/Info : Advanced Video
Duration : 3 h 7 min
Source duration : 3 h 7 min
Bit rate : 2 024 kb/s
Width : 1 280 pixels
Height : 720 pixels
Display aspect ratio : 16:9
Frame rate mode : Variable
Frame rate : 29.970 (29970/1000) FPS
Minimum frame rate : 10.000 FPS
Maximum frame rate : 30.303 FPS
Color space : YUV
Chroma subsampling : 4:2:0
Bit depth : 8 bits
Scan type : Progressive
Bits/(Pixel*Frame) : 0.073
Stream size : 2.65 GiB (95%)
Source stream size : 2.65 GiB (95%)
mdhd_Duration : 11228317
Codec configuration box : avcC

Warrior Wrestling Stadium Series 

Audio
ID : 2
Format : AAC LC
Codec ID : mp4a-40-2
Duration : 3 h 7 min
Bit rate mode : Constant
Bit rate : 96.0 kb/s
Channel(s) : 2 channels
Channel layout : L R
Sampling rate : 48.0 kHz
Frame rate : 46.875 FPS
Compression mode : Lossy
Stream size : 127 MiB (4%)
Default : Yes
Alternate group : 1

Complete name : Warrior Wrestling Stadium Series July 2021 PPV SD.mp4
Format : MPEG-4
Format profile : Base Media
Codec ID : isom
File size : 1.34 GiB
Duration : 3 h 7 min
Overall bit rate : 1 026 kb/s

Warrior Wrestling Stadium Series 

Video
ID : 1
Format : AVC
Format/Info : Advanced Video
Duration : 3 h 7 min
Bit rate : 926 kb/s
Width : 850 pixels
Height : 480 pixels
Display aspect ratio : 16:9
Frame rate mode : Constant
Frame rate : 25.000 FPS
Color space : YUV
Chroma subsampling : 4:2:0
Bit depth : 8 bits
Scan type : Progressive
Bits/(Pixel*Frame) : 0.091
Stream size : 1.21 GiB (90%)

Warrior Wrestling Stadium Series 

Audio
ID : 2
Format : AAC LC
Format/Info : Advanced Audio
Codec ID : mp4a-40-2
Duration : 3 h 7 min
Bit rate mode : Constant
Bit rate : 96.0 kb/s
Channel(s) : 2 channels
Channel layout : L R
Sampling rate : 44.1 kHz
Frame rate : 43.066 FPS
Compression mode : Lossy
Stream size : 128 MiB (9%)
Default : Yes
Alternate group : 1

Warrior Wrestling Stadium Series 

Complete name : Warrior Wrestling Stadium Series July 2021 PPV 720p By DX-TV.com.mp4
Format : MPEG-4
Format profile : Base Media
Codec ID : isom
File size : 2.78 GiB
Duration : 3 h 7 min
Overall bit rate : 2 129 kb/s

Video
ID : 1
Format : AVC
Format/Info : Advanced Video
Duration : 3 h 7 min
Source duration : 3 h 7 min
Bit rate : 2 024 kb/s
Width : 1 280 pixels
Height : 720 pixels
Display aspect ratio : 16:9
Frame rate mode : Variable
Frame rate : 29.970 (29970/1000) FPS
Minimum frame rate : 10.000 FPS
Maximum frame rate : 30.303 FPS
Color space : YUV
Chroma subsampling : 4:2:0
Bit depth : 8 bits
Scan type : Progressive
Bits/(Pixel*Frame) : 0.073
Stream size : 2.65 GiB (95%)
Source stream size : 2.65 GiB (95%)
mdhd_Duration : 11228317
Codec configuration box : avcC

Warrior Wrestling Stadium Series 

Audio
ID : 2
Format : AAC LC
Codec ID : mp4a-40-2
Duration : 3 h 7 min
Bit rate mode : Constant
Bit rate : 96.0 kb/s
Channel(s) : 2 channels
Channel layout : L R
Sampling rate : 48.0 kHz
Frame rate : 46.875 FPS
Compression mode : Lossy
Stream size : 127 MiB (4%)
Default : Yes
Alternate group : 1

Complete name : Warrior Wrestling Stadium Series July 2021 PPV SD.mp4
Format : MPEG-4
Format profile : Base Media
Codec ID : isom
File size : 1.34 GiB
Duration : 3 h 7 min
Overall bit rate : 1 026 kb/s

Warrior Wrestling Stadium Series 

Video
ID : 1
Format : AVC
Format/Info : Advanced Video
Duration : 3 h 7 min
Bit rate : 926 kb/s
Width : 850 pixels
Height : 480 pixels
Display aspect ratio : 16:9
Frame rate mode : Constant
Frame rate : 25.000 FPS
Color space : YUV
Chroma subsampling : 4:2:0
Bit depth : 8 bits
Scan type : Progressive
Bits/(Pixel*Frame) : 0.091
Stream size : 1.21 GiB (90%)

Warrior Wrestling Stadium Series 

Audio
ID : 2
Format : AAC LC
Format/Info : Advanced Audio
Codec ID : mp4a-40-2
Duration : 3 h 7 min
Bit rate mode : Constant
Bit rate : 96.0 kb/s
Channel(s) : 2 channels
Channel layout : L R
Sampling rate : 44.1 kHz
Frame rate : 43.066 FPS
Compression mode : Lossy
Stream size : 128 MiB (9%)
Default : Yes
Alternate group : 1

Warrior Wrestling Stadium Series 

Complete name : Warrior Wrestling Stadium Series July 2021 PPV 720p By DX-TV.com.mp4
Format : MPEG-4
Format profile : Base Media
Codec ID : isom
File size : 2.78 GiB
Duration : 3 h 7 min
Overall bit rate : 2 129 kb/s

Video
ID : 1
Format : AVC
Format/Info : Advanced Video
Duration : 3 h 7 min
Source duration : 3 h 7 min
Bit rate : 2 024 kb/s
Width : 1 280 pixels
Height : 720 pixels
Display aspect ratio : 16:9
Frame rate mode : Variable
Frame rate : 29.970 (29970/1000) FPS
Minimum frame rate : 10.000 FPS
Maximum frame rate : 30.303 FPS
Color space : YUV
Chroma subsampling : 4:2:0
Bit depth : 8 bits
Scan type : Progressive
Bits/(Pixel*Frame) : 0.073
Stream size : 2.65 GiB (95%)
Source stream size : 2.65 GiB (95%)
mdhd_Duration : 11228317
Codec configuration box : avcC

Warrior Wrestling Stadium Series 

Audio
ID : 2
Format : AAC LC
Codec ID : mp4a-40-2
Duration : 3 h 7 min
Bit rate mode : Constant
Bit rate : 96.0 kb/s
Channel(s) : 2 channels
Channel layout : L R
Sampling rate : 48.0 kHz
Frame rate : 46.875 FPS
Compression mode : Lossy
Stream size : 127 MiB (4%)
Default : Yes
Alternate group : 1

Complete name : Warrior Wrestling Stadium Series July 2021 PPV SD.mp4
Format : MPEG-4
Format profile : Base Media
Codec ID : isom
File size : 1.34 GiB
Duration : 3 h 7 min
Overall bit rate : 1 026 kb/s

Warrior Wrestling Stadium Series 

Video
ID : 1
Format : AVC
Format/Info : Advanced Video
Duration : 3 h 7 min
Bit rate : 926 kb/s
Width : 850 pixels
Height : 480 pixels
Display aspect ratio : 16:9
Frame rate mode : Constant
Frame rate : 25.000 FPS
Color space : YUV
Chroma subsampling : 4:2:0
Bit depth : 8 bits
Scan type : Progressive
Bits/(Pixel*Frame) : 0.091
Stream size : 1.21 GiB (90%)

Warrior Wrestling Stadium Series 

Audio
ID : 2
Format : AAC LC
Format/Info : Advanced Audio
Codec ID : mp4a-40-2
Duration : 3 h 7 min
Bit rate mode : Constant
Bit rate : 96.0 kb/s
Channel(s) : 2 channels
Channel layout : L R
Sampling rate : 44.1 kHz
Frame rate : 43.066 FPS
Compression mode : Lossy
Stream size : 128 MiB (9%)
Default : Yes
Alternate group : 1

Warrior Wrestling Stadium Series 

 

[collapse]

 

 

https://dx-tv.com/

Leave a Reply

Your email address will not be published. Required fields are marked *

This site uses Akismet to reduce spam. Learn how your comment data is processed.

Previous Post
WWE Steve Austins Broken Skull Session Kevin Nash

WWE Steve Austins Broken Skull S01E18 Kevin Nash Free

Next Post
WWE Money In The Bank 2021

WWE Money In The Bank 2021 720p Online Free Replay