WWE Steve Austins Broken Skull Sessions S01E18 Kevin Nash Online Free Replay DX-TV

Contents show

WWE Steve Austins Broken Skull

 WWE Steve Austins Broken Skull

 

 

 

Download Links with premium High Speed


 

Dopapk

 

 

Show Links

 

http://shrt10.com/D7G2zC
http://shrt10.com/Xzjsix
http://shrt10.com/UX0fpM

 

[collapse]

 

 

Nitroflare

 

 

Show Links

 

http://shrt10.com/pCNSaBY
http://shrt10.com/LmMsrpZ
http://shrt10.com/5eFhK8kC

 

[collapse]

 

 

Rapidgator

 

 

Show Links

 

http://shrt10.com/eQ5VB
http://shrt10.com/J6U4jml
http://shrt10.com/TAqV91xx

 

[collapse]

 

 

Uploaded

 

 

Show Links

 

http://shrt10.com/Gr0dnSTxS
http://shrt10.com/zsTmWS4K
http://shrt10.com/Ko4YzY

 

[collapse]

 

 

Watch online

 

Server 1

 

 

 

 

WWE Steve Austins Broken Skull

 

 

 

 

Server-2

 

 

 

 

watch now

 

 

 

|Server-3

 

 

 

 

watch now

 

 

Uploaded By Site DX-TV.com

 

 

Show Info This Show

WWE Steve Austins Broken Skull

 

Complete name : WWE.Steve.Austins.Broken.Skull.Sessions.S01E18.Kevin.Nash.720p.Lo.WEB.h264-HEEL.mp4
Format : MPEG-4
Format profile : Base Media
Codec ID : isom
File size : 997 MiB
Duration : 1 h 21 min
Overall bit rate mode : Variable
Overall bit rate : 1 705 kb/s

Video
ID : 1
Format : AVC
Format/Info : Advanced Video
Duration : 1 h 21 min
Bit rate : 1 504 kb/s
Width : 1 280 pixels
Height : 720 pixels
Display aspect ratio : 16:9
Frame rate mode : Constant
Frame rate : 30.000 FPS
Color space : YUV
Chroma subsampling : 4:2:0
Bit depth : 8 bits
Scan type : Progressive
Bits/(Pixel*Frame) : 0.054
Stream size : 879 MiB (88%)

Audio
ID : 2
Format : AAC LC
Codec ID : mp4a-40-2
Duration : 1 h 21 min
Source duration : 1 h 21 min
Bit rate mode : Constant
Nominal bit rate : 193 kb/s
Maximum bit rate : 193 kb/s
Channel(s) : 2 channels
Channel layout : L R
Sampling rate : 48.0 kHz
Frame rate : 46.875 FPS
Compression mode : Lossy
Source stream size : 113 MiB (11%)
Default : Yes

WWE Steve Austins Broken Skull

Text
ID : 3
Format : Timed Text
Muxing mode : sbtl
Codec ID : tx3g
Duration : 1 h 21 min
Bit rate mode : Variable
Bit rate : 115 b/s
Stream size : 68.7 KiB
Language : English
Default : Yes
Forced : No
Alternate group : 3

Complete name : WWE.Steve.Austins.Broken.Skull.Sessions.S01E18.Kevin.Nash.1080p.WEB.h264-HEEL.mp4
Format : MPEG-4
Format profile : Base Media
Codec ID : isom
File size : 4.55 GiB
Duration : 1 h 21 min
Overall bit rate mode : Variable
Overall bit rate : 7 964 kb/s

WWE Steve Austins Broken Skull

Video
ID : 1
Format : AVC
Format/Info : Advanced Video
Duration : 1 h 21 min
Bit rate : 7 760 kb/s
Width : 1 920 pixels
Height : 1 080 pixels
Display aspect ratio : 16:9
Frame rate mode : Constant
Frame rate : 30.000 FPS
Color space : YUV
Chroma subsampling : 4:2:0
Bit depth : 8 bits
Scan type : Progressive
Bits/(Pixel*Frame) : 0.125
Stream size : 4.43 GiB (97%)

Audio
ID : 2
Format : AAC LC
Format/Info : Advanced Audio
Codec ID : mp4a-40-2
Duration : 1 h 21 min
Source duration : 1 h 21 min
Bit rate mode : Constant
Nominal bit rate : 193 kb/s
Maximum bit rate : 193 kb/s
Channel(s) : 2 channels
Channel layout : L R
Sampling rate : 48.0 kHz
Frame rate : 46.875 FPS
Compression mode : Lossy
Source stream size : 113 MiB (2%)
Default : Yes
Alternate group : 1
mdhd_Duration : 4906242

WWE Steve Austins Broken Skull

Text
ID : 3
Format : Timed Text
Muxing mode : sbtl
Codec ID : tx3g
Duration : 1 h 21 min
Bit rate mode : Variable
Bit rate : 115 b/s
Stream size : 68.7 KiB (0%)
Language : English
Default : Yes
Forced : No
Alternate group : 3

Complete name : WWE.Steve.Austins.Broken.Skull.Sessions.S01E18.Kevin.Nash.720p.Hi.WEB.h264-HEEL.mp4
Format : MPEG-4
Format profile : Base Media
Codec ID : isom
File size : 2.03 GiB
Duration : 1 h 21 min
Overall bit rate mode : Variable
Overall bit rate : 3 555 kb/s

WWE Steve Austins Broken Skull

Video
ID : 1
Format : AVC
Duration : 1 h 21 min
Bit rate : 3 353 kb/s
Width : 1 280 pixels
Height : 720 pixels
Display aspect ratio : 16:9
Frame rate mode : Constant
Frame rate : 30.000 FPS
Color space : YUV
Chroma subsampling : 4:2:0
Bit depth : 8 bits
Scan type : Progressive
Bits/(Pixel*Frame) : 0.121
Stream size : 1.92 GiB (94%)

Audio
ID : 2
Format : AAC LC
Codec ID : mp4a-40-2
Duration : 1 h 21 min
Source duration : 1 h 21 min
Bit rate mode : Constant
Nominal bit rate : 193 kb/s
Maximum bit rate : 193 kb/s
Channel(s) : 2 channels
Channel layout : L R
Sampling rate : 48.0 kHz
Frame rate : 46.875 FPS
Compression mode : Lossy
Source stream size : 113 MiB (5%)
Default : Yes
Alternate group : 1
mdhd_Duration : 4906242

WWE Steve Austins Broken Skull

Text
ID : 3
Format : Timed Text
Muxing mode : sbtl
Codec ID : tx3g
Duration : 1 h 21 min
Bit rate mode : Variable
Bit rate : 115 b/s
Stream size : 68.7 KiB (0%)
Language : English
Default : Yes
Forced : No
Alternate group : 3

WWE Steve Austins Broken Skull

Complete name : WWE.Steve.Austins.Broken.Skull.Sessions.S01E18.Kevin.Nash.720p.Lo.WEB.h264-HEEL.mp4
Format : MPEG-4
Format profile : Base Media
Codec ID : isom
File size : 997 MiB
Duration : 1 h 21 min
Overall bit rate mode : Variable
Overall bit rate : 1 705 kb/s

Video
ID : 1
Format : AVC
Format/Info : Advanced Video
Duration : 1 h 21 min
Bit rate : 1 504 kb/s
Width : 1 280 pixels
Height : 720 pixels
Display aspect ratio : 16:9
Frame rate mode : Constant
Frame rate : 30.000 FPS
Color space : YUV
Chroma subsampling : 4:2:0
Bit depth : 8 bits
Scan type : Progressive
Bits/(Pixel*Frame) : 0.054
Stream size : 879 MiB (88%)

Audio
ID : 2
Format : AAC LC
Codec ID : mp4a-40-2
Duration : 1 h 21 min
Source duration : 1 h 21 min
Bit rate mode : Constant
Nominal bit rate : 193 kb/s
Maximum bit rate : 193 kb/s
Channel(s) : 2 channels
Channel layout : L R
Sampling rate : 48.0 kHz
Frame rate : 46.875 FPS
Compression mode : Lossy
Source stream size : 113 MiB (11%)
Default : Yes

WWE Steve Austins Broken Skull

Text
ID : 3
Format : Timed Text
Muxing mode : sbtl
Codec ID : tx3g
Duration : 1 h 21 min
Bit rate mode : Variable
Bit rate : 115 b/s
Stream size : 68.7 KiB
Language : English
Default : Yes
Forced : No
Alternate group : 3

Complete name : WWE.Steve.Austins.Broken.Skull.Sessions.S01E18.Kevin.Nash.1080p.WEB.h264-HEEL.mp4
Format : MPEG-4
Format profile : Base Media
Codec ID : isom
File size : 4.55 GiB
Duration : 1 h 21 min
Overall bit rate mode : Variable
Overall bit rate : 7 964 kb/s

WWE Steve Austins Broken Skull

Video
ID : 1
Format : AVC
Format/Info : Advanced Video
Duration : 1 h 21 min
Bit rate : 7 760 kb/s
Width : 1 920 pixels
Height : 1 080 pixels
Display aspect ratio : 16:9
Frame rate mode : Constant
Frame rate : 30.000 FPS
Color space : YUV
Chroma subsampling : 4:2:0
Bit depth : 8 bits
Scan type : Progressive
Bits/(Pixel*Frame) : 0.125
Stream size : 4.43 GiB (97%)

Audio
ID : 2
Format : AAC LC
Format/Info : Advanced Audio
Codec ID : mp4a-40-2
Duration : 1 h 21 min
Source duration : 1 h 21 min
Bit rate mode : Constant
Nominal bit rate : 193 kb/s
Maximum bit rate : 193 kb/s
Channel(s) : 2 channels
Channel layout : L R
Sampling rate : 48.0 kHz
Frame rate : 46.875 FPS
Compression mode : Lossy
Source stream size : 113 MiB (2%)
Default : Yes
Alternate group : 1
mdhd_Duration : 4906242

WWE Steve Austins Broken Skull

Text
ID : 3
Format : Timed Text
Muxing mode : sbtl
Codec ID : tx3g
Duration : 1 h 21 min
Bit rate mode : Variable
Bit rate : 115 b/s
Stream size : 68.7 KiB (0%)
Language : English
Default : Yes
Forced : No
Alternate group : 3

Complete name : WWE.Steve.Austins.Broken.Skull.Sessions.S01E18.Kevin.Nash.720p.Hi.WEB.h264-HEEL.mp4
Format : MPEG-4
Format profile : Base Media
Codec ID : isom
File size : 2.03 GiB
Duration : 1 h 21 min
Overall bit rate mode : Variable
Overall bit rate : 3 555 kb/s

WWE Steve Austins Broken Skull

Video
ID : 1
Format : AVC
Duration : 1 h 21 min
Bit rate : 3 353 kb/s
Width : 1 280 pixels
Height : 720 pixels
Display aspect ratio : 16:9
Frame rate mode : Constant
Frame rate : 30.000 FPS
Color space : YUV
Chroma subsampling : 4:2:0
Bit depth : 8 bits
Scan type : Progressive
Bits/(Pixel*Frame) : 0.121
Stream size : 1.92 GiB (94%)

Audio
ID : 2
Format : AAC LC
Codec ID : mp4a-40-2
Duration : 1 h 21 min
Source duration : 1 h 21 min
Bit rate mode : Constant
Nominal bit rate : 193 kb/s
Maximum bit rate : 193 kb/s
Channel(s) : 2 channels
Channel layout : L R
Sampling rate : 48.0 kHz
Frame rate : 46.875 FPS
Compression mode : Lossy
Source stream size : 113 MiB (5%)
Default : Yes
Alternate group : 1
mdhd_Duration : 4906242

WWE Steve Austins Broken Skull

Text
ID : 3
Format : Timed Text
Muxing mode : sbtl
Codec ID : tx3g
Duration : 1 h 21 min
Bit rate mode : Variable
Bit rate : 115 b/s
Stream size : 68.7 KiB (0%)
Language : English
Default : Yes
Forced : No
Alternate group : 3

WWE Steve Austins Broken Skull

Complete name : WWE.Steve.Austins.Broken.Skull.Sessions.S01E18.Kevin.Nash.720p.Lo.WEB.h264-HEEL.mp4
Format : MPEG-4
Format profile : Base Media
Codec ID : isom
File size : 997 MiB
Duration : 1 h 21 min
Overall bit rate mode : Variable
Overall bit rate : 1 705 kb/s

Video
ID : 1
Format : AVC
Format/Info : Advanced Video
Duration : 1 h 21 min
Bit rate : 1 504 kb/s
Width : 1 280 pixels
Height : 720 pixels
Display aspect ratio : 16:9
Frame rate mode : Constant
Frame rate : 30.000 FPS
Color space : YUV
Chroma subsampling : 4:2:0
Bit depth : 8 bits
Scan type : Progressive
Bits/(Pixel*Frame) : 0.054
Stream size : 879 MiB (88%)

Audio
ID : 2
Format : AAC LC
Codec ID : mp4a-40-2
Duration : 1 h 21 min
Source duration : 1 h 21 min
Bit rate mode : Constant
Nominal bit rate : 193 kb/s
Maximum bit rate : 193 kb/s
Channel(s) : 2 channels
Channel layout : L R
Sampling rate : 48.0 kHz
Frame rate : 46.875 FPS
Compression mode : Lossy
Source stream size : 113 MiB (11%)
Default : Yes

WWE Steve Austins Broken Skull

Text
ID : 3
Format : Timed Text
Muxing mode : sbtl
Codec ID : tx3g
Duration : 1 h 21 min
Bit rate mode : Variable
Bit rate : 115 b/s
Stream size : 68.7 KiB
Language : English
Default : Yes
Forced : No
Alternate group : 3

Complete name : WWE.Steve.Austins.Broken.Skull.Sessions.S01E18.Kevin.Nash.1080p.WEB.h264-HEEL.mp4
Format : MPEG-4
Format profile : Base Media
Codec ID : isom
File size : 4.55 GiB
Duration : 1 h 21 min
Overall bit rate mode : Variable
Overall bit rate : 7 964 kb/s

WWE Steve Austins Broken Skull

Video
ID : 1
Format : AVC
Format/Info : Advanced Video
Duration : 1 h 21 min
Bit rate : 7 760 kb/s
Width : 1 920 pixels
Height : 1 080 pixels
Display aspect ratio : 16:9
Frame rate mode : Constant
Frame rate : 30.000 FPS
Color space : YUV
Chroma subsampling : 4:2:0
Bit depth : 8 bits
Scan type : Progressive
Bits/(Pixel*Frame) : 0.125
Stream size : 4.43 GiB (97%)

Audio
ID : 2
Format : AAC LC
Format/Info : Advanced Audio
Codec ID : mp4a-40-2
Duration : 1 h 21 min
Source duration : 1 h 21 min
Bit rate mode : Constant
Nominal bit rate : 193 kb/s
Maximum bit rate : 193 kb/s
Channel(s) : 2 channels
Channel layout : L R
Sampling rate : 48.0 kHz
Frame rate : 46.875 FPS
Compression mode : Lossy
Source stream size : 113 MiB (2%)
Default : Yes
Alternate group : 1
mdhd_Duration : 4906242

WWE Steve Austins Broken Skull

Text
ID : 3
Format : Timed Text
Muxing mode : sbtl
Codec ID : tx3g
Duration : 1 h 21 min
Bit rate mode : Variable
Bit rate : 115 b/s
Stream size : 68.7 KiB (0%)
Language : English
Default : Yes
Forced : No
Alternate group : 3

Complete name : WWE.Steve.Austins.Broken.Skull.Sessions.S01E18.Kevin.Nash.720p.Hi.WEB.h264-HEEL.mp4
Format : MPEG-4
Format profile : Base Media
Codec ID : isom
File size : 2.03 GiB
Duration : 1 h 21 min
Overall bit rate mode : Variable
Overall bit rate : 3 555 kb/s

WWE Steve Austins Broken Skull

Video
ID : 1
Format : AVC
Duration : 1 h 21 min
Bit rate : 3 353 kb/s
Width : 1 280 pixels
Height : 720 pixels
Display aspect ratio : 16:9
Frame rate mode : Constant
Frame rate : 30.000 FPS
Color space : YUV
Chroma subsampling : 4:2:0
Bit depth : 8 bits
Scan type : Progressive
Bits/(Pixel*Frame) : 0.121
Stream size : 1.92 GiB (94%)

Audio
ID : 2
Format : AAC LC
Codec ID : mp4a-40-2
Duration : 1 h 21 min
Source duration : 1 h 21 min
Bit rate mode : Constant
Nominal bit rate : 193 kb/s
Maximum bit rate : 193 kb/s
Channel(s) : 2 channels
Channel layout : L R
Sampling rate : 48.0 kHz
Frame rate : 46.875 FPS
Compression mode : Lossy
Source stream size : 113 MiB (5%)
Default : Yes
Alternate group : 1
mdhd_Duration : 4906242

WWE Steve Austins Broken Skull

Text
ID : 3
Format : Timed Text
Muxing mode : sbtl
Codec ID : tx3g
Duration : 1 h 21 min
Bit rate mode : Variable
Bit rate : 115 b/s
Stream size : 68.7 KiB (0%)
Language : English
Default : Yes
Forced : No
Alternate group : 3

WWE Steve Austins Broken Skull

Complete name : WWE.Steve.Austins.Broken.Skull.Sessions.S01E18.Kevin.Nash.720p.Lo.WEB.h264-HEEL.mp4
Format : MPEG-4
Format profile : Base Media
Codec ID : isom
File size : 997 MiB
Duration : 1 h 21 min
Overall bit rate mode : Variable
Overall bit rate : 1 705 kb/s

Video
ID : 1
Format : AVC
Format/Info : Advanced Video
Duration : 1 h 21 min
Bit rate : 1 504 kb/s
Width : 1 280 pixels
Height : 720 pixels
Display aspect ratio : 16:9
Frame rate mode : Constant
Frame rate : 30.000 FPS
Color space : YUV
Chroma subsampling : 4:2:0
Bit depth : 8 bits
Scan type : Progressive
Bits/(Pixel*Frame) : 0.054
Stream size : 879 MiB (88%)

Audio
ID : 2
Format : AAC LC
Codec ID : mp4a-40-2
Duration : 1 h 21 min
Source duration : 1 h 21 min
Bit rate mode : Constant
Nominal bit rate : 193 kb/s
Maximum bit rate : 193 kb/s
Channel(s) : 2 channels
Channel layout : L R
Sampling rate : 48.0 kHz
Frame rate : 46.875 FPS
Compression mode : Lossy
Source stream size : 113 MiB (11%)
Default : Yes

WWE Steve Austins Broken Skull

Text
ID : 3
Format : Timed Text
Muxing mode : sbtl
Codec ID : tx3g
Duration : 1 h 21 min
Bit rate mode : Variable
Bit rate : 115 b/s
Stream size : 68.7 KiB
Language : English
Default : Yes
Forced : No
Alternate group : 3

Complete name : WWE.Steve.Austins.Broken.Skull.Sessions.S01E18.Kevin.Nash.1080p.WEB.h264-HEEL.mp4
Format : MPEG-4
Format profile : Base Media
Codec ID : isom
File size : 4.55 GiB
Duration : 1 h 21 min
Overall bit rate mode : Variable
Overall bit rate : 7 964 kb/s

WWE Steve Austins Broken Skull

Video
ID : 1
Format : AVC
Format/Info : Advanced Video
Duration : 1 h 21 min
Bit rate : 7 760 kb/s
Width : 1 920 pixels
Height : 1 080 pixels
Display aspect ratio : 16:9
Frame rate mode : Constant
Frame rate : 30.000 FPS
Color space : YUV
Chroma subsampling : 4:2:0
Bit depth : 8 bits
Scan type : Progressive
Bits/(Pixel*Frame) : 0.125
Stream size : 4.43 GiB (97%)

Audio
ID : 2
Format : AAC LC
Format/Info : Advanced Audio
Codec ID : mp4a-40-2
Duration : 1 h 21 min
Source duration : 1 h 21 min
Bit rate mode : Constant
Nominal bit rate : 193 kb/s
Maximum bit rate : 193 kb/s
Channel(s) : 2 channels
Channel layout : L R
Sampling rate : 48.0 kHz
Frame rate : 46.875 FPS
Compression mode : Lossy
Source stream size : 113 MiB (2%)
Default : Yes
Alternate group : 1
mdhd_Duration : 4906242

WWE Steve Austins Broken Skull

Text
ID : 3
Format : Timed Text
Muxing mode : sbtl
Codec ID : tx3g
Duration : 1 h 21 min
Bit rate mode : Variable
Bit rate : 115 b/s
Stream size : 68.7 KiB (0%)
Language : English
Default : Yes
Forced : No
Alternate group : 3

Complete name : WWE.Steve.Austins.Broken.Skull.Sessions.S01E18.Kevin.Nash.720p.Hi.WEB.h264-HEEL.mp4
Format : MPEG-4
Format profile : Base Media
Codec ID : isom
File size : 2.03 GiB
Duration : 1 h 21 min
Overall bit rate mode : Variable
Overall bit rate : 3 555 kb/s

WWE Steve Austins Broken Skull

Video
ID : 1
Format : AVC
Duration : 1 h 21 min
Bit rate : 3 353 kb/s
Width : 1 280 pixels
Height : 720 pixels
Display aspect ratio : 16:9
Frame rate mode : Constant
Frame rate : 30.000 FPS
Color space : YUV
Chroma subsampling : 4:2:0
Bit depth : 8 bits
Scan type : Progressive
Bits/(Pixel*Frame) : 0.121
Stream size : 1.92 GiB (94%)

Audio
ID : 2
Format : AAC LC
Codec ID : mp4a-40-2
Duration : 1 h 21 min
Source duration : 1 h 21 min
Bit rate mode : Constant
Nominal bit rate : 193 kb/s
Maximum bit rate : 193 kb/s
Channel(s) : 2 channels
Channel layout : L R
Sampling rate : 48.0 kHz
Frame rate : 46.875 FPS
Compression mode : Lossy
Source stream size : 113 MiB (5%)
Default : Yes
Alternate group : 1
mdhd_Duration : 4906242

WWE Steve Austins Broken Skull

Text
ID : 3
Format : Timed Text
Muxing mode : sbtl
Codec ID : tx3g
Duration : 1 h 21 min
Bit rate mode : Variable
Bit rate : 115 b/s
Stream size : 68.7 KiB (0%)
Language : English
Default : Yes
Forced : No
Alternate group : 3

WWE Steve Austins Broken Skull

Complete name : WWE.Steve.Austins.Broken.Skull.Sessions.S01E18.Kevin.Nash.720p.Lo.WEB.h264-HEEL.mp4
Format : MPEG-4
Format profile : Base Media
Codec ID : isom
File size : 997 MiB
Duration : 1 h 21 min
Overall bit rate mode : Variable
Overall bit rate : 1 705 kb/s

Video
ID : 1
Format : AVC
Format/Info : Advanced Video
Duration : 1 h 21 min
Bit rate : 1 504 kb/s
Width : 1 280 pixels
Height : 720 pixels
Display aspect ratio : 16:9
Frame rate mode : Constant
Frame rate : 30.000 FPS
Color space : YUV
Chroma subsampling : 4:2:0
Bit depth : 8 bits
Scan type : Progressive
Bits/(Pixel*Frame) : 0.054
Stream size : 879 MiB (88%)

Audio
ID : 2
Format : AAC LC
Codec ID : mp4a-40-2
Duration : 1 h 21 min
Source duration : 1 h 21 min
Bit rate mode : Constant
Nominal bit rate : 193 kb/s
Maximum bit rate : 193 kb/s
Channel(s) : 2 channels
Channel layout : L R
Sampling rate : 48.0 kHz
Frame rate : 46.875 FPS
Compression mode : Lossy
Source stream size : 113 MiB (11%)
Default : Yes

WWE Steve Austins Broken Skull

Text
ID : 3
Format : Timed Text
Muxing mode : sbtl
Codec ID : tx3g
Duration : 1 h 21 min
Bit rate mode : Variable
Bit rate : 115 b/s
Stream size : 68.7 KiB
Language : English
Default : Yes
Forced : No
Alternate group : 3

Complete name : WWE.Steve.Austins.Broken.Skull.Sessions.S01E18.Kevin.Nash.1080p.WEB.h264-HEEL.mp4
Format : MPEG-4
Format profile : Base Media
Codec ID : isom
File size : 4.55 GiB
Duration : 1 h 21 min
Overall bit rate mode : Variable
Overall bit rate : 7 964 kb/s

WWE Steve Austins Broken Skull

Video
ID : 1
Format : AVC
Format/Info : Advanced Video
Duration : 1 h 21 min
Bit rate : 7 760 kb/s
Width : 1 920 pixels
Height : 1 080 pixels
Display aspect ratio : 16:9
Frame rate mode : Constant
Frame rate : 30.000 FPS
Color space : YUV
Chroma subsampling : 4:2:0
Bit depth : 8 bits
Scan type : Progressive
Bits/(Pixel*Frame) : 0.125
Stream size : 4.43 GiB (97%)

Audio
ID : 2
Format : AAC LC
Format/Info : Advanced Audio
Codec ID : mp4a-40-2
Duration : 1 h 21 min
Source duration : 1 h 21 min
Bit rate mode : Constant
Nominal bit rate : 193 kb/s
Maximum bit rate : 193 kb/s
Channel(s) : 2 channels
Channel layout : L R
Sampling rate : 48.0 kHz
Frame rate : 46.875 FPS
Compression mode : Lossy
Source stream size : 113 MiB (2%)
Default : Yes
Alternate group : 1
mdhd_Duration : 4906242

WWE Steve Austins Broken Skull

Text
ID : 3
Format : Timed Text
Muxing mode : sbtl
Codec ID : tx3g
Duration : 1 h 21 min
Bit rate mode : Variable
Bit rate : 115 b/s
Stream size : 68.7 KiB (0%)
Language : English
Default : Yes
Forced : No
Alternate group : 3

Complete name : WWE.Steve.Austins.Broken.Skull.Sessions.S01E18.Kevin.Nash.720p.Hi.WEB.h264-HEEL.mp4
Format : MPEG-4
Format profile : Base Media
Codec ID : isom
File size : 2.03 GiB
Duration : 1 h 21 min
Overall bit rate mode : Variable
Overall bit rate : 3 555 kb/s

WWE Steve Austins Broken Skull

Video
ID : 1
Format : AVC
Duration : 1 h 21 min
Bit rate : 3 353 kb/s
Width : 1 280 pixels
Height : 720 pixels
Display aspect ratio : 16:9
Frame rate mode : Constant
Frame rate : 30.000 FPS
Color space : YUV
Chroma subsampling : 4:2:0
Bit depth : 8 bits
Scan type : Progressive
Bits/(Pixel*Frame) : 0.121
Stream size : 1.92 GiB (94%)

Audio
ID : 2
Format : AAC LC
Codec ID : mp4a-40-2
Duration : 1 h 21 min
Source duration : 1 h 21 min
Bit rate mode : Constant
Nominal bit rate : 193 kb/s
Maximum bit rate : 193 kb/s
Channel(s) : 2 channels
Channel layout : L R
Sampling rate : 48.0 kHz
Frame rate : 46.875 FPS
Compression mode : Lossy
Source stream size : 113 MiB (5%)
Default : Yes
Alternate group : 1
mdhd_Duration : 4906242

WWE Steve Austins Broken Skull

Text
ID : 3
Format : Timed Text
Muxing mode : sbtl
Codec ID : tx3g
Duration : 1 h 21 min
Bit rate mode : Variable
Bit rate : 115 b/s
Stream size : 68.7 KiB (0%)
Language : English
Default : Yes
Forced : No
Alternate group : 3

WWE Steve Austins Broken Skull

Complete name : WWE.Steve.Austins.Broken.Skull.Sessions.S01E18.Kevin.Nash.720p.Lo.WEB.h264-HEEL.mp4
Format : MPEG-4
Format profile : Base Media
Codec ID : isom
File size : 997 MiB
Duration : 1 h 21 min
Overall bit rate mode : Variable
Overall bit rate : 1 705 kb/s

Video
ID : 1
Format : AVC
Format/Info : Advanced Video
Duration : 1 h 21 min
Bit rate : 1 504 kb/s
Width : 1 280 pixels
Height : 720 pixels
Display aspect ratio : 16:9
Frame rate mode : Constant
Frame rate : 30.000 FPS
Color space : YUV
Chroma subsampling : 4:2:0
Bit depth : 8 bits
Scan type : Progressive
Bits/(Pixel*Frame) : 0.054
Stream size : 879 MiB (88%)

Audio
ID : 2
Format : AAC LC
Codec ID : mp4a-40-2
Duration : 1 h 21 min
Source duration : 1 h 21 min
Bit rate mode : Constant
Nominal bit rate : 193 kb/s
Maximum bit rate : 193 kb/s
Channel(s) : 2 channels
Channel layout : L R
Sampling rate : 48.0 kHz
Frame rate : 46.875 FPS
Compression mode : Lossy
Source stream size : 113 MiB (11%)
Default : Yes

WWE Steve Austins Broken Skull

Text
ID : 3
Format : Timed Text
Muxing mode : sbtl
Codec ID : tx3g
Duration : 1 h 21 min
Bit rate mode : Variable
Bit rate : 115 b/s
Stream size : 68.7 KiB
Language : English
Default : Yes
Forced : No
Alternate group : 3

Complete name : WWE.Steve.Austins.Broken.Skull.Sessions.S01E18.Kevin.Nash.1080p.WEB.h264-HEEL.mp4
Format : MPEG-4
Format profile : Base Media
Codec ID : isom
File size : 4.55 GiB
Duration : 1 h 21 min
Overall bit rate mode : Variable
Overall bit rate : 7 964 kb/s

WWE Steve Austins Broken Skull

Video
ID : 1
Format : AVC
Format/Info : Advanced Video
Duration : 1 h 21 min
Bit rate : 7 760 kb/s
Width : 1 920 pixels
Height : 1 080 pixels
Display aspect ratio : 16:9
Frame rate mode : Constant
Frame rate : 30.000 FPS
Color space : YUV
Chroma subsampling : 4:2:0
Bit depth : 8 bits
Scan type : Progressive
Bits/(Pixel*Frame) : 0.125
Stream size : 4.43 GiB (97%)

Audio
ID : 2
Format : AAC LC
Format/Info : Advanced Audio
Codec ID : mp4a-40-2
Duration : 1 h 21 min
Source duration : 1 h 21 min
Bit rate mode : Constant
Nominal bit rate : 193 kb/s
Maximum bit rate : 193 kb/s
Channel(s) : 2 channels
Channel layout : L R
Sampling rate : 48.0 kHz
Frame rate : 46.875 FPS
Compression mode : Lossy
Source stream size : 113 MiB (2%)
Default : Yes
Alternate group : 1
mdhd_Duration : 4906242

WWE Steve Austins Broken Skull

Text
ID : 3
Format : Timed Text
Muxing mode : sbtl
Codec ID : tx3g
Duration : 1 h 21 min
Bit rate mode : Variable
Bit rate : 115 b/s
Stream size : 68.7 KiB (0%)
Language : English
Default : Yes
Forced : No
Alternate group : 3

Complete name : WWE.Steve.Austins.Broken.Skull.Sessions.S01E18.Kevin.Nash.720p.Hi.WEB.h264-HEEL.mp4
Format : MPEG-4
Format profile : Base Media
Codec ID : isom
File size : 2.03 GiB
Duration : 1 h 21 min
Overall bit rate mode : Variable
Overall bit rate : 3 555 kb/s

WWE Steve Austins Broken Skull

Video
ID : 1
Format : AVC
Duration : 1 h 21 min
Bit rate : 3 353 kb/s
Width : 1 280 pixels
Height : 720 pixels
Display aspect ratio : 16:9
Frame rate mode : Constant
Frame rate : 30.000 FPS
Color space : YUV
Chroma subsampling : 4:2:0
Bit depth : 8 bits
Scan type : Progressive
Bits/(Pixel*Frame) : 0.121
Stream size : 1.92 GiB (94%)

Audio
ID : 2
Format : AAC LC
Codec ID : mp4a-40-2
Duration : 1 h 21 min
Source duration : 1 h 21 min
Bit rate mode : Constant
Nominal bit rate : 193 kb/s
Maximum bit rate : 193 kb/s
Channel(s) : 2 channels
Channel layout : L R
Sampling rate : 48.0 kHz
Frame rate : 46.875 FPS
Compression mode : Lossy
Source stream size : 113 MiB (5%)
Default : Yes
Alternate group : 1
mdhd_Duration : 4906242

WWE Steve Austins Broken Skull

Text
ID : 3
Format : Timed Text
Muxing mode : sbtl
Codec ID : tx3g
Duration : 1 h 21 min
Bit rate mode : Variable
Bit rate : 115 b/s
Stream size : 68.7 KiB (0%)
Language : English
Default : Yes
Forced : No
Alternate group : 3

WWE Steve Austins Broken Skull

 

[collapse]

 

 

https://dx-tv.com/

Leave a Reply

Your email address will not be published. Required fields are marked *

This site uses Akismet to reduce spam. Learn how your comment data is processed.

Previous Post
WWE La Previa Money in the Bank 2021

WWE La Previa Money in the Bank 2021 Online Free

Next Post
Warrior Wrestling Stadium Series July 2021

Warrior Wrestling Stadium Series July 2021 Free