WWE Money In The Bank 2021 720p Online Free Replay HEEL DX-TV

WWE Money In The Bank 2021

 WWE Money In The Bank 2021

 

 

 

Download Links with premium High Speed


Dopapk

 

 

Show Links

 

http://shrt10.com/6dyAcw09
http://shrt10.com/UiKPFRy

[collapse]

 

 

Nitroflare

 

 

Show Links

 

http://shrt10.com/SchWXR
http://shrt10.com/qcgeu

 

[collapse]

 

 

Rapidgator

 

 

Show Links

 

http://shrt10.com/iURo4igk
http://shrt10.com/CsEcb3h

 

[collapse]

 

 

Uploaded

 

 

Show Links

 

http://shrt10.com/JiG3oi

 

[collapse]

 

 

Watch online

 

Server 1

 

 

 

 

WWE Money In The Bank 2021

 

 

 

 

Server-2

 

 

 

 

watch now

 

 

 

|Server-3

 

 

 

 

watch now

 

 

Uploaded By Site DX-TV.com

 

 

Show Info This Show

WWE Money In The Bank 2021

 

Complete name : WWE.Money.In.The.Bank.2021.PPV.WEB.h264-HEEL.mp4
Format : MPEG-4
Format profile : Base Media
Codec ID : isom
File size : 2.33 GiB
Duration : 3 h 20 min
Overall bit rate mode : Variable
Overall bit rate : 1 663 kb/s
Law rating : N/A

Video
ID : 1
Format : AVC
Format/Info : Advanced Video
Duration : 3 h 20 min
Bit rate mode : Variable
Bit rate : 1 530 kb/s
Maximum bit rate : 1 663 kb/s
Width : 896 pixels
Height : 504 pixels
Display aspect ratio : 16:9
Frame rate mode : Variable
Frame rate : 30.000 FPS
Minimum frame rate : 29.412 FPS
Maximum frame rate : 30.303 FPS
Standard : NTSC
Color space : YUV
Chroma subsampling : 4:2:0
Bit depth : 8 bits
Scan type : Progressive
Bits/(Pixel*Frame) : 0.113
Stream size : 2.14 GiB (92%)
Color range : Limited
Color primaries : BT.709
Transfer characteristics : BT.709
Matrix coefficients : BT.709
Codec configuration box : avc

WWE Money In The Bank 2021

Audio
ID : 2
Format : AAC LC
Codec ID : mp4a-40-2
Duration : 3 h 20 min
Source duration : 3 h 20 min
Bit rate mode : Variable
Bit rate : 125 kb/s
Maximum bit rate : 128 kb/s / 128 kb/s
Channel(s) : 2 channels
Channel layout : L R
Sampling rate : 48.0 kHz
Frame rate : 46.875 FPS (1024 SPF)
Compression mode : Lossy
Stream size : 180 MiB (8%)
Source stream size : 180 MiB (8%)
Default : Yes
Alternate group : 1
mdhd_Duration : 12017989

Text #1
ID : 1-CC1
Format : EIA-608
Muxing mode : SCTE 128 / DTVCC Transport
Muxing mode, more info : Muxed in Video #1
Duration : 3 h 20 min
Bit rate mode : Constant
Stream size : 0.00 Byte (0%)
CaptionServiceName : CC1

Text #2
ID : 1-CC3
Format : EIA-608
Muxing mode : SCTE 128 / DTVCC Transport
Muxing mode, more info : Muxed in Video #1
Duration : 3 h 20 min
Bit rate mode : Constant
Stream size : 0.00 Byte (0%)
CaptionServiceName : CC3

WWE Money In The Bank 2021

Text #3
ID : 1-1
Format : EIA-708
Muxing mode : SCTE 128 / DTVCC Transport
Muxing mode, more info : Muxed in Video #1
Duration : 3 h 20 min
Bit rate mode : Constant
Stream size : 0.00 Byte (0%)

Text #4
ID : 1-2
Format : EIA-708
Muxing mode : SCTE 128 / DTVCC Transport
Muxing mode, more info : Muxed in Video #1
Duration : 3 h 20 min
Bit rate mode : Constant
Stream size : 0.00 Byte (0%)

WWE Money In The Bank 2021

Complete name : \WWE.Money.In.The.Bank.2021.PPV.720p.WEB.h264-HEEL.mp4
Format : MPEG-4
Format profile : Base Media
Codec ID : isom
File size : 6.00 GiB
Duration : 3 h 20 min
Overall bit rate mode : Variable
Overall bit rate : 4 290 kb/s
Law rating : N/A

Video
ID : 1
Format : AVC
Duration : 3 h 20 min
Bit rate : 4 152 kb/s
Width : 1 280 pixels
Height : 720 pixels
Display aspect ratio : 16:9
Frame rate mode : Variable
Frame rate : 30.000 FPS
Minimum frame rate : 29.412 FPS
Maximum frame rate : 30.303 FPS
Color space : YUV
Chroma subsampling : 4:2:0
Bit depth : 8 bits
Scan type : Progressive
Bits/(Pixel*Frame) : 0.150
Stream size : 5.81 GiB (97%)
mdhd_Duration : 12018000
Codec configuration box : avc

WWE Money In The Bank 2021

Audio
ID : 2
Format : AAC LC
Codec ID : mp4a-40-2
Duration : 3 h 20 min
Source duration : 3 h 20 min
Bit rate mode : Variable
Bit rate : 125 kb/s
Maximum bit rate : 128 kb/s / 128 kb/s
Channel(s) : 2 channels
Channel layout : L R
Sampling rate : 48.0 kHz
Frame rate : 46.875 FPS (1024 SPF)
Compression mode : Lossy
Stream size : 180 MiB (3%)
Source stream size : 180 MiB (3%)
Default : Yes
Alternate group : 1
mdhd_Duration : 12017989

Text #1
ID : 1-CC1
Format : EIA-608
Muxing mode : SCTE 128 / DTVCC Transport
Muxing mode, more info : Muxed in Video #1
Duration : 3 h 20 min
Bit rate mode : Constant
Stream size : 0.00 Byte (0%)
CaptionServiceName : CC1

WWE Money In The Bank 2021

Text #2
ID : 1-CC3
Format : EIA-608
Muxing mode : SCTE 128 / DTVCC Transport
Muxing mode, more info : Muxed in Video #1
Duration : 3 h 20 min
Bit rate mode : Constant
Stream size : 0.00 Byte (0%)
CaptionServiceName : CC3

Text #3
ID : 1-1
Format : EIA-708
Muxing mode : SCTE 128 / DTVCC Transport
Muxing mode, more info : Muxed in Video #1
Duration : 3 h 20 min
Bit rate mode : Constant
Stream size : 0.00 Byte (0%)

Text #4
ID : 1-2
Format : EIA-708
Muxing mode : SCTE 128 / DTVCC Transport
Muxing mode, more info : Muxed in Video #1
Duration : 3 h 20 min
Bit rate mode : Constant
Stream size : 0.00 Byte (0%)

WWE Money In The Bank 2021

Complete name : WWE.Money.In.The.Bank.2021.PPV.WEB.h264-HEEL.mp4
Format : MPEG-4
Format profile : Base Media
Codec ID : isom
File size : 2.33 GiB
Duration : 3 h 20 min
Overall bit rate mode : Variable
Overall bit rate : 1 663 kb/s
Law rating : N/A

Video
ID : 1
Format : AVC
Format/Info : Advanced Video
Duration : 3 h 20 min
Bit rate mode : Variable
Bit rate : 1 530 kb/s
Maximum bit rate : 1 663 kb/s
Width : 896 pixels
Height : 504 pixels
Display aspect ratio : 16:9
Frame rate mode : Variable
Frame rate : 30.000 FPS
Minimum frame rate : 29.412 FPS
Maximum frame rate : 30.303 FPS
Standard : NTSC
Color space : YUV
Chroma subsampling : 4:2:0
Bit depth : 8 bits
Scan type : Progressive
Bits/(Pixel*Frame) : 0.113
Stream size : 2.14 GiB (92%)
Color range : Limited
Color primaries : BT.709
Transfer characteristics : BT.709
Matrix coefficients : BT.709
Codec configuration box : avc

WWE Money In The Bank 2021

Audio
ID : 2
Format : AAC LC
Codec ID : mp4a-40-2
Duration : 3 h 20 min
Source duration : 3 h 20 min
Bit rate mode : Variable
Bit rate : 125 kb/s
Maximum bit rate : 128 kb/s / 128 kb/s
Channel(s) : 2 channels
Channel layout : L R
Sampling rate : 48.0 kHz
Frame rate : 46.875 FPS (1024 SPF)
Compression mode : Lossy
Stream size : 180 MiB (8%)
Source stream size : 180 MiB (8%)
Default : Yes
Alternate group : 1
mdhd_Duration : 12017989

Text #1
ID : 1-CC1
Format : EIA-608
Muxing mode : SCTE 128 / DTVCC Transport
Muxing mode, more info : Muxed in Video #1
Duration : 3 h 20 min
Bit rate mode : Constant
Stream size : 0.00 Byte (0%)
CaptionServiceName : CC1

Text #2
ID : 1-CC3
Format : EIA-608
Muxing mode : SCTE 128 / DTVCC Transport
Muxing mode, more info : Muxed in Video #1
Duration : 3 h 20 min
Bit rate mode : Constant
Stream size : 0.00 Byte (0%)
CaptionServiceName : CC3

WWE Money In The Bank 2021

Text #3
ID : 1-1
Format : EIA-708
Muxing mode : SCTE 128 / DTVCC Transport
Muxing mode, more info : Muxed in Video #1
Duration : 3 h 20 min
Bit rate mode : Constant
Stream size : 0.00 Byte (0%)

Text #4
ID : 1-2
Format : EIA-708
Muxing mode : SCTE 128 / DTVCC Transport
Muxing mode, more info : Muxed in Video #1
Duration : 3 h 20 min
Bit rate mode : Constant
Stream size : 0.00 Byte (0%)

WWE Money In The Bank 2021

Complete name : \WWE.Money.In.The.Bank.2021.PPV.720p.WEB.h264-HEEL.mp4
Format : MPEG-4
Format profile : Base Media
Codec ID : isom
File size : 6.00 GiB
Duration : 3 h 20 min
Overall bit rate mode : Variable
Overall bit rate : 4 290 kb/s
Law rating : N/A

Video
ID : 1
Format : AVC
Duration : 3 h 20 min
Bit rate : 4 152 kb/s
Width : 1 280 pixels
Height : 720 pixels
Display aspect ratio : 16:9
Frame rate mode : Variable
Frame rate : 30.000 FPS
Minimum frame rate : 29.412 FPS
Maximum frame rate : 30.303 FPS
Color space : YUV
Chroma subsampling : 4:2:0
Bit depth : 8 bits
Scan type : Progressive
Bits/(Pixel*Frame) : 0.150
Stream size : 5.81 GiB (97%)
mdhd_Duration : 12018000
Codec configuration box : avc

WWE Money In The Bank 2021

Audio
ID : 2
Format : AAC LC
Codec ID : mp4a-40-2
Duration : 3 h 20 min
Source duration : 3 h 20 min
Bit rate mode : Variable
Bit rate : 125 kb/s
Maximum bit rate : 128 kb/s / 128 kb/s
Channel(s) : 2 channels
Channel layout : L R
Sampling rate : 48.0 kHz
Frame rate : 46.875 FPS (1024 SPF)
Compression mode : Lossy
Stream size : 180 MiB (3%)
Source stream size : 180 MiB (3%)
Default : Yes
Alternate group : 1
mdhd_Duration : 12017989

Text #1
ID : 1-CC1
Format : EIA-608
Muxing mode : SCTE 128 / DTVCC Transport
Muxing mode, more info : Muxed in Video #1
Duration : 3 h 20 min
Bit rate mode : Constant
Stream size : 0.00 Byte (0%)
CaptionServiceName : CC1

WWE Money In The Bank 2021

Text #2
ID : 1-CC3
Format : EIA-608
Muxing mode : SCTE 128 / DTVCC Transport
Muxing mode, more info : Muxed in Video #1
Duration : 3 h 20 min
Bit rate mode : Constant
Stream size : 0.00 Byte (0%)
CaptionServiceName : CC3

Text #3
ID : 1-1
Format : EIA-708
Muxing mode : SCTE 128 / DTVCC Transport
Muxing mode, more info : Muxed in Video #1
Duration : 3 h 20 min
Bit rate mode : Constant
Stream size : 0.00 Byte (0%)

Text #4
ID : 1-2
Format : EIA-708
Muxing mode : SCTE 128 / DTVCC Transport
Muxing mode, more info : Muxed in Video #1
Duration : 3 h 20 min
Bit rate mode : Constant
Stream size : 0.00 Byte (0%)

WWE Money In The Bank 2021

Complete name : WWE.Money.In.The.Bank.2021.PPV.WEB.h264-HEEL.mp4
Format : MPEG-4
Format profile : Base Media
Codec ID : isom
File size : 2.33 GiB
Duration : 3 h 20 min
Overall bit rate mode : Variable
Overall bit rate : 1 663 kb/s
Law rating : N/A

Video
ID : 1
Format : AVC
Format/Info : Advanced Video
Duration : 3 h 20 min
Bit rate mode : Variable
Bit rate : 1 530 kb/s
Maximum bit rate : 1 663 kb/s
Width : 896 pixels
Height : 504 pixels
Display aspect ratio : 16:9
Frame rate mode : Variable
Frame rate : 30.000 FPS
Minimum frame rate : 29.412 FPS
Maximum frame rate : 30.303 FPS
Standard : NTSC
Color space : YUV
Chroma subsampling : 4:2:0
Bit depth : 8 bits
Scan type : Progressive
Bits/(Pixel*Frame) : 0.113
Stream size : 2.14 GiB (92%)
Color range : Limited
Color primaries : BT.709
Transfer characteristics : BT.709
Matrix coefficients : BT.709
Codec configuration box : avc

WWE Money In The Bank 2021

Audio
ID : 2
Format : AAC LC
Codec ID : mp4a-40-2
Duration : 3 h 20 min
Source duration : 3 h 20 min
Bit rate mode : Variable
Bit rate : 125 kb/s
Maximum bit rate : 128 kb/s / 128 kb/s
Channel(s) : 2 channels
Channel layout : L R
Sampling rate : 48.0 kHz
Frame rate : 46.875 FPS (1024 SPF)
Compression mode : Lossy
Stream size : 180 MiB (8%)
Source stream size : 180 MiB (8%)
Default : Yes
Alternate group : 1
mdhd_Duration : 12017989

Text #1
ID : 1-CC1
Format : EIA-608
Muxing mode : SCTE 128 / DTVCC Transport
Muxing mode, more info : Muxed in Video #1
Duration : 3 h 20 min
Bit rate mode : Constant
Stream size : 0.00 Byte (0%)
CaptionServiceName : CC1

Text #2
ID : 1-CC3
Format : EIA-608
Muxing mode : SCTE 128 / DTVCC Transport
Muxing mode, more info : Muxed in Video #1
Duration : 3 h 20 min
Bit rate mode : Constant
Stream size : 0.00 Byte (0%)
CaptionServiceName : CC3

WWE Money In The Bank 2021

Text #3
ID : 1-1
Format : EIA-708
Muxing mode : SCTE 128 / DTVCC Transport
Muxing mode, more info : Muxed in Video #1
Duration : 3 h 20 min
Bit rate mode : Constant
Stream size : 0.00 Byte (0%)

Text #4
ID : 1-2
Format : EIA-708
Muxing mode : SCTE 128 / DTVCC Transport
Muxing mode, more info : Muxed in Video #1
Duration : 3 h 20 min
Bit rate mode : Constant
Stream size : 0.00 Byte (0%)

WWE Money In The Bank 2021

Complete name : \WWE.Money.In.The.Bank.2021.PPV.720p.WEB.h264-HEEL.mp4
Format : MPEG-4
Format profile : Base Media
Codec ID : isom
File size : 6.00 GiB
Duration : 3 h 20 min
Overall bit rate mode : Variable
Overall bit rate : 4 290 kb/s
Law rating : N/A

Video
ID : 1
Format : AVC
Duration : 3 h 20 min
Bit rate : 4 152 kb/s
Width : 1 280 pixels
Height : 720 pixels
Display aspect ratio : 16:9
Frame rate mode : Variable
Frame rate : 30.000 FPS
Minimum frame rate : 29.412 FPS
Maximum frame rate : 30.303 FPS
Color space : YUV
Chroma subsampling : 4:2:0
Bit depth : 8 bits
Scan type : Progressive
Bits/(Pixel*Frame) : 0.150
Stream size : 5.81 GiB (97%)
mdhd_Duration : 12018000
Codec configuration box : avc

WWE Money In The Bank 2021

Audio
ID : 2
Format : AAC LC
Codec ID : mp4a-40-2
Duration : 3 h 20 min
Source duration : 3 h 20 min
Bit rate mode : Variable
Bit rate : 125 kb/s
Maximum bit rate : 128 kb/s / 128 kb/s
Channel(s) : 2 channels
Channel layout : L R
Sampling rate : 48.0 kHz
Frame rate : 46.875 FPS (1024 SPF)
Compression mode : Lossy
Stream size : 180 MiB (3%)
Source stream size : 180 MiB (3%)
Default : Yes
Alternate group : 1
mdhd_Duration : 12017989

Text #1
ID : 1-CC1
Format : EIA-608
Muxing mode : SCTE 128 / DTVCC Transport
Muxing mode, more info : Muxed in Video #1
Duration : 3 h 20 min
Bit rate mode : Constant
Stream size : 0.00 Byte (0%)
CaptionServiceName : CC1

WWE Money In The Bank 2021

Text #2
ID : 1-CC3
Format : EIA-608
Muxing mode : SCTE 128 / DTVCC Transport
Muxing mode, more info : Muxed in Video #1
Duration : 3 h 20 min
Bit rate mode : Constant
Stream size : 0.00 Byte (0%)
CaptionServiceName : CC3

Text #3
ID : 1-1
Format : EIA-708
Muxing mode : SCTE 128 / DTVCC Transport
Muxing mode, more info : Muxed in Video #1
Duration : 3 h 20 min
Bit rate mode : Constant
Stream size : 0.00 Byte (0%)

Text #4
ID : 1-2
Format : EIA-708
Muxing mode : SCTE 128 / DTVCC Transport
Muxing mode, more info : Muxed in Video #1
Duration : 3 h 20 min
Bit rate mode : Constant
Stream size : 0.00 Byte (0%)

WWE Money In The Bank 2021

Complete name : WWE.Money.In.The.Bank.2021.PPV.WEB.h264-HEEL.mp4
Format : MPEG-4
Format profile : Base Media
Codec ID : isom
File size : 2.33 GiB
Duration : 3 h 20 min
Overall bit rate mode : Variable
Overall bit rate : 1 663 kb/s
Law rating : N/A

Video
ID : 1
Format : AVC
Format/Info : Advanced Video
Duration : 3 h 20 min
Bit rate mode : Variable
Bit rate : 1 530 kb/s
Maximum bit rate : 1 663 kb/s
Width : 896 pixels
Height : 504 pixels
Display aspect ratio : 16:9
Frame rate mode : Variable
Frame rate : 30.000 FPS
Minimum frame rate : 29.412 FPS
Maximum frame rate : 30.303 FPS
Standard : NTSC
Color space : YUV
Chroma subsampling : 4:2:0
Bit depth : 8 bits
Scan type : Progressive
Bits/(Pixel*Frame) : 0.113
Stream size : 2.14 GiB (92%)
Color range : Limited
Color primaries : BT.709
Transfer characteristics : BT.709
Matrix coefficients : BT.709
Codec configuration box : avc

WWE Money In The Bank 2021

Audio
ID : 2
Format : AAC LC
Codec ID : mp4a-40-2
Duration : 3 h 20 min
Source duration : 3 h 20 min
Bit rate mode : Variable
Bit rate : 125 kb/s
Maximum bit rate : 128 kb/s / 128 kb/s
Channel(s) : 2 channels
Channel layout : L R
Sampling rate : 48.0 kHz
Frame rate : 46.875 FPS (1024 SPF)
Compression mode : Lossy
Stream size : 180 MiB (8%)
Source stream size : 180 MiB (8%)
Default : Yes
Alternate group : 1
mdhd_Duration : 12017989

Text #1
ID : 1-CC1
Format : EIA-608
Muxing mode : SCTE 128 / DTVCC Transport
Muxing mode, more info : Muxed in Video #1
Duration : 3 h 20 min
Bit rate mode : Constant
Stream size : 0.00 Byte (0%)
CaptionServiceName : CC1

Text #2
ID : 1-CC3
Format : EIA-608
Muxing mode : SCTE 128 / DTVCC Transport
Muxing mode, more info : Muxed in Video #1
Duration : 3 h 20 min
Bit rate mode : Constant
Stream size : 0.00 Byte (0%)
CaptionServiceName : CC3

WWE Money In The Bank 2021

Text #3
ID : 1-1
Format : EIA-708
Muxing mode : SCTE 128 / DTVCC Transport
Muxing mode, more info : Muxed in Video #1
Duration : 3 h 20 min
Bit rate mode : Constant
Stream size : 0.00 Byte (0%)

Text #4
ID : 1-2
Format : EIA-708
Muxing mode : SCTE 128 / DTVCC Transport
Muxing mode, more info : Muxed in Video #1
Duration : 3 h 20 min
Bit rate mode : Constant
Stream size : 0.00 Byte (0%)

WWE Money In The Bank 2021

Complete name : \WWE.Money.In.The.Bank.2021.PPV.720p.WEB.h264-HEEL.mp4
Format : MPEG-4
Format profile : Base Media
Codec ID : isom
File size : 6.00 GiB
Duration : 3 h 20 min
Overall bit rate mode : Variable
Overall bit rate : 4 290 kb/s
Law rating : N/A

Video
ID : 1
Format : AVC
Duration : 3 h 20 min
Bit rate : 4 152 kb/s
Width : 1 280 pixels
Height : 720 pixels
Display aspect ratio : 16:9
Frame rate mode : Variable
Frame rate : 30.000 FPS
Minimum frame rate : 29.412 FPS
Maximum frame rate : 30.303 FPS
Color space : YUV
Chroma subsampling : 4:2:0
Bit depth : 8 bits
Scan type : Progressive
Bits/(Pixel*Frame) : 0.150
Stream size : 5.81 GiB (97%)
mdhd_Duration : 12018000
Codec configuration box : avc

WWE Money In The Bank 2021

Audio
ID : 2
Format : AAC LC
Codec ID : mp4a-40-2
Duration : 3 h 20 min
Source duration : 3 h 20 min
Bit rate mode : Variable
Bit rate : 125 kb/s
Maximum bit rate : 128 kb/s / 128 kb/s
Channel(s) : 2 channels
Channel layout : L R
Sampling rate : 48.0 kHz
Frame rate : 46.875 FPS (1024 SPF)
Compression mode : Lossy
Stream size : 180 MiB (3%)
Source stream size : 180 MiB (3%)
Default : Yes
Alternate group : 1
mdhd_Duration : 12017989

Text #1
ID : 1-CC1
Format : EIA-608
Muxing mode : SCTE 128 / DTVCC Transport
Muxing mode, more info : Muxed in Video #1
Duration : 3 h 20 min
Bit rate mode : Constant
Stream size : 0.00 Byte (0%)
CaptionServiceName : CC1

WWE Money In The Bank 2021

Text #2
ID : 1-CC3
Format : EIA-608
Muxing mode : SCTE 128 / DTVCC Transport
Muxing mode, more info : Muxed in Video #1
Duration : 3 h 20 min
Bit rate mode : Constant
Stream size : 0.00 Byte (0%)
CaptionServiceName : CC3

Text #3
ID : 1-1
Format : EIA-708
Muxing mode : SCTE 128 / DTVCC Transport
Muxing mode, more info : Muxed in Video #1
Duration : 3 h 20 min
Bit rate mode : Constant
Stream size : 0.00 Byte (0%)

Text #4
ID : 1-2
Format : EIA-708
Muxing mode : SCTE 128 / DTVCC Transport
Muxing mode, more info : Muxed in Video #1
Duration : 3 h 20 min
Bit rate mode : Constant
Stream size : 0.00 Byte (0%)

WWE Money In The Bank 2021

Complete name : WWE.Money.In.The.Bank.2021.PPV.WEB.h264-HEEL.mp4
Format : MPEG-4
Format profile : Base Media
Codec ID : isom
File size : 2.33 GiB
Duration : 3 h 20 min
Overall bit rate mode : Variable
Overall bit rate : 1 663 kb/s
Law rating : N/A

Video
ID : 1
Format : AVC
Format/Info : Advanced Video
Duration : 3 h 20 min
Bit rate mode : Variable
Bit rate : 1 530 kb/s
Maximum bit rate : 1 663 kb/s
Width : 896 pixels
Height : 504 pixels
Display aspect ratio : 16:9
Frame rate mode : Variable
Frame rate : 30.000 FPS
Minimum frame rate : 29.412 FPS
Maximum frame rate : 30.303 FPS
Standard : NTSC
Color space : YUV
Chroma subsampling : 4:2:0
Bit depth : 8 bits
Scan type : Progressive
Bits/(Pixel*Frame) : 0.113
Stream size : 2.14 GiB (92%)
Color range : Limited
Color primaries : BT.709
Transfer characteristics : BT.709
Matrix coefficients : BT.709
Codec configuration box : avc

WWE Money In The Bank 2021

Audio
ID : 2
Format : AAC LC
Codec ID : mp4a-40-2
Duration : 3 h 20 min
Source duration : 3 h 20 min
Bit rate mode : Variable
Bit rate : 125 kb/s
Maximum bit rate : 128 kb/s / 128 kb/s
Channel(s) : 2 channels
Channel layout : L R
Sampling rate : 48.0 kHz
Frame rate : 46.875 FPS (1024 SPF)
Compression mode : Lossy
Stream size : 180 MiB (8%)
Source stream size : 180 MiB (8%)
Default : Yes
Alternate group : 1
mdhd_Duration : 12017989

Text #1
ID : 1-CC1
Format : EIA-608
Muxing mode : SCTE 128 / DTVCC Transport
Muxing mode, more info : Muxed in Video #1
Duration : 3 h 20 min
Bit rate mode : Constant
Stream size : 0.00 Byte (0%)
CaptionServiceName : CC1

Text #2
ID : 1-CC3
Format : EIA-608
Muxing mode : SCTE 128 / DTVCC Transport
Muxing mode, more info : Muxed in Video #1
Duration : 3 h 20 min
Bit rate mode : Constant
Stream size : 0.00 Byte (0%)
CaptionServiceName : CC3

WWE Money In The Bank 2021

Text #3
ID : 1-1
Format : EIA-708
Muxing mode : SCTE 128 / DTVCC Transport
Muxing mode, more info : Muxed in Video #1
Duration : 3 h 20 min
Bit rate mode : Constant
Stream size : 0.00 Byte (0%)

Text #4
ID : 1-2
Format : EIA-708
Muxing mode : SCTE 128 / DTVCC Transport
Muxing mode, more info : Muxed in Video #1
Duration : 3 h 20 min
Bit rate mode : Constant
Stream size : 0.00 Byte (0%)

WWE Money In The Bank 2021

Complete name : \WWE.Money.In.The.Bank.2021.PPV.720p.WEB.h264-HEEL.mp4
Format : MPEG-4
Format profile : Base Media
Codec ID : isom
File size : 6.00 GiB
Duration : 3 h 20 min
Overall bit rate mode : Variable
Overall bit rate : 4 290 kb/s
Law rating : N/A

Video
ID : 1
Format : AVC
Duration : 3 h 20 min
Bit rate : 4 152 kb/s
Width : 1 280 pixels
Height : 720 pixels
Display aspect ratio : 16:9
Frame rate mode : Variable
Frame rate : 30.000 FPS
Minimum frame rate : 29.412 FPS
Maximum frame rate : 30.303 FPS
Color space : YUV
Chroma subsampling : 4:2:0
Bit depth : 8 bits
Scan type : Progressive
Bits/(Pixel*Frame) : 0.150
Stream size : 5.81 GiB (97%)
mdhd_Duration : 12018000
Codec configuration box : avc

WWE Money In The Bank 2021

Audio
ID : 2
Format : AAC LC
Codec ID : mp4a-40-2
Duration : 3 h 20 min
Source duration : 3 h 20 min
Bit rate mode : Variable
Bit rate : 125 kb/s
Maximum bit rate : 128 kb/s / 128 kb/s
Channel(s) : 2 channels
Channel layout : L R
Sampling rate : 48.0 kHz
Frame rate : 46.875 FPS (1024 SPF)
Compression mode : Lossy
Stream size : 180 MiB (3%)
Source stream size : 180 MiB (3%)
Default : Yes
Alternate group : 1
mdhd_Duration : 12017989

Text #1
ID : 1-CC1
Format : EIA-608
Muxing mode : SCTE 128 / DTVCC Transport
Muxing mode, more info : Muxed in Video #1
Duration : 3 h 20 min
Bit rate mode : Constant
Stream size : 0.00 Byte (0%)
CaptionServiceName : CC1

WWE Money In The Bank 2021

Text #2
ID : 1-CC3
Format : EIA-608
Muxing mode : SCTE 128 / DTVCC Transport
Muxing mode, more info : Muxed in Video #1
Duration : 3 h 20 min
Bit rate mode : Constant
Stream size : 0.00 Byte (0%)
CaptionServiceName : CC3

Text #3
ID : 1-1
Format : EIA-708
Muxing mode : SCTE 128 / DTVCC Transport
Muxing mode, more info : Muxed in Video #1
Duration : 3 h 20 min
Bit rate mode : Constant
Stream size : 0.00 Byte (0%)

Text #4
ID : 1-2
Format : EIA-708
Muxing mode : SCTE 128 / DTVCC Transport
Muxing mode, more info : Muxed in Video #1
Duration : 3 h 20 min
Bit rate mode : Constant
Stream size : 0.00 Byte (0%)

WWE Money In The Bank 2021

Complete name : WWE.Money.In.The.Bank.2021.PPV.WEB.h264-HEEL.mp4
Format : MPEG-4
Format profile : Base Media
Codec ID : isom
File size : 2.33 GiB
Duration : 3 h 20 min
Overall bit rate mode : Variable
Overall bit rate : 1 663 kb/s
Law rating : N/A

Video
ID : 1
Format : AVC
Format/Info : Advanced Video
Duration : 3 h 20 min
Bit rate mode : Variable
Bit rate : 1 530 kb/s
Maximum bit rate : 1 663 kb/s
Width : 896 pixels
Height : 504 pixels
Display aspect ratio : 16:9
Frame rate mode : Variable
Frame rate : 30.000 FPS
Minimum frame rate : 29.412 FPS
Maximum frame rate : 30.303 FPS
Standard : NTSC
Color space : YUV
Chroma subsampling : 4:2:0
Bit depth : 8 bits
Scan type : Progressive
Bits/(Pixel*Frame) : 0.113
Stream size : 2.14 GiB (92%)
Color range : Limited
Color primaries : BT.709
Transfer characteristics : BT.709
Matrix coefficients : BT.709
Codec configuration box : avc

WWE Money In The Bank 2021

Audio
ID : 2
Format : AAC LC
Codec ID : mp4a-40-2
Duration : 3 h 20 min
Source duration : 3 h 20 min
Bit rate mode : Variable
Bit rate : 125 kb/s
Maximum bit rate : 128 kb/s / 128 kb/s
Channel(s) : 2 channels
Channel layout : L R
Sampling rate : 48.0 kHz
Frame rate : 46.875 FPS (1024 SPF)
Compression mode : Lossy
Stream size : 180 MiB (8%)
Source stream size : 180 MiB (8%)
Default : Yes
Alternate group : 1
mdhd_Duration : 12017989

Text #1
ID : 1-CC1
Format : EIA-608
Muxing mode : SCTE 128 / DTVCC Transport
Muxing mode, more info : Muxed in Video #1
Duration : 3 h 20 min
Bit rate mode : Constant
Stream size : 0.00 Byte (0%)
CaptionServiceName : CC1

Text #2
ID : 1-CC3
Format : EIA-608
Muxing mode : SCTE 128 / DTVCC Transport
Muxing mode, more info : Muxed in Video #1
Duration : 3 h 20 min
Bit rate mode : Constant
Stream size : 0.00 Byte (0%)
CaptionServiceName : CC3

WWE Money In The Bank 2021

Text #3
ID : 1-1
Format : EIA-708
Muxing mode : SCTE 128 / DTVCC Transport
Muxing mode, more info : Muxed in Video #1
Duration : 3 h 20 min
Bit rate mode : Constant
Stream size : 0.00 Byte (0%)

Text #4
ID : 1-2
Format : EIA-708
Muxing mode : SCTE 128 / DTVCC Transport
Muxing mode, more info : Muxed in Video #1
Duration : 3 h 20 min
Bit rate mode : Constant
Stream size : 0.00 Byte (0%)

WWE Money In The Bank 2021

Complete name : \WWE.Money.In.The.Bank.2021.PPV.720p.WEB.h264-HEEL.mp4
Format : MPEG-4
Format profile : Base Media
Codec ID : isom
File size : 6.00 GiB
Duration : 3 h 20 min
Overall bit rate mode : Variable
Overall bit rate : 4 290 kb/s
Law rating : N/A

Video
ID : 1
Format : AVC
Duration : 3 h 20 min
Bit rate : 4 152 kb/s
Width : 1 280 pixels
Height : 720 pixels
Display aspect ratio : 16:9
Frame rate mode : Variable
Frame rate : 30.000 FPS
Minimum frame rate : 29.412 FPS
Maximum frame rate : 30.303 FPS
Color space : YUV
Chroma subsampling : 4:2:0
Bit depth : 8 bits
Scan type : Progressive
Bits/(Pixel*Frame) : 0.150
Stream size : 5.81 GiB (97%)
mdhd_Duration : 12018000
Codec configuration box : avc

WWE Money In The Bank 2021

Audio
ID : 2
Format : AAC LC
Codec ID : mp4a-40-2
Duration : 3 h 20 min
Source duration : 3 h 20 min
Bit rate mode : Variable
Bit rate : 125 kb/s
Maximum bit rate : 128 kb/s / 128 kb/s
Channel(s) : 2 channels
Channel layout : L R
Sampling rate : 48.0 kHz
Frame rate : 46.875 FPS (1024 SPF)
Compression mode : Lossy
Stream size : 180 MiB (3%)
Source stream size : 180 MiB (3%)
Default : Yes
Alternate group : 1
mdhd_Duration : 12017989

Text #1
ID : 1-CC1
Format : EIA-608
Muxing mode : SCTE 128 / DTVCC Transport
Muxing mode, more info : Muxed in Video #1
Duration : 3 h 20 min
Bit rate mode : Constant
Stream size : 0.00 Byte (0%)
CaptionServiceName : CC1

WWE Money In The Bank 2021

Text #2
ID : 1-CC3
Format : EIA-608
Muxing mode : SCTE 128 / DTVCC Transport
Muxing mode, more info : Muxed in Video #1
Duration : 3 h 20 min
Bit rate mode : Constant
Stream size : 0.00 Byte (0%)
CaptionServiceName : CC3

Text #3
ID : 1-1
Format : EIA-708
Muxing mode : SCTE 128 / DTVCC Transport
Muxing mode, more info : Muxed in Video #1
Duration : 3 h 20 min
Bit rate mode : Constant
Stream size : 0.00 Byte (0%)

Text #4
ID : 1-2
Format : EIA-708
Muxing mode : SCTE 128 / DTVCC Transport
Muxing mode, more info : Muxed in Video #1
Duration : 3 h 20 min
Bit rate mode : Constant
Stream size : 0.00 Byte (0%)

WWE Money In The Bank 2021

 

[collapse]

 

 

https://dx-tv.com/

Leave a Reply

Your email address will not be published. Required fields are marked *

This site uses Akismet to reduce spam. Learn how your comment data is processed.

Previous Post
Warrior Wrestling Stadium Series July 2021

Warrior Wrestling Stadium Series July 2021 Free

Next Post
WWE Money In The Bank 2021

WWE Money In The Bank 2021 Kickoff Online Free