UFC on ESPN 12 1080p Full Show mp4

Watch UFC on ESPN 12 1080p Full Show mp4 DX-TV

 

UFC on ESPN 12

 UFC on ESPN 12
 

UFC on ESPN 12 1080p Full Show Free Online

 

 

 

Complete name : UFC.on.ESPN.12.1080p.WEB-DL .mp4
Format : MPEG-4
Format profile : Base Media
Codec ID : UFC on ESPN
File size : 10.1 GiB
Duration : 4 h 3 min
Overall bit rate mode : Variable
Overall bit rate : 5 962 kb/s
Writing application : Lavf58.12.100

UFC on ESPN 12 1080p Full Show mp4

Video
ID : 2
Format : AVC
Format/Info : Advanced Video Codec
wprofile : [email protected]
Format settings : CABAC / 1 Ref Frames
Format settings, CABAC : Yes
UFC on ESPN : 1 frame
Format settings, GOP : M=1, N=60
Codec ID : avc1
Codec ID/Info : UFC on ESPN Coding
Duration : 4 h 3 min
Bit rate mode : Variable
Bit rate : 5 821 kb/s
Maximum bit rate : 5 906 kb/s
Width : 1 920 pixels
Height : 1 080 pixels
Display aspect ratio : 16:9
Frame rate mode : Variable
Frame rate : 30.000 FPS
Minimum frame rate : 29.412 FPS
UFC on ESPN rate : 30.303 FPS
Color space : YUV
Chroma subsampling : 4:2:0
Bit depth : 8 bits
Scan type : Progressive
Bits/(Pixel*Frame) : 0.094
Stream size : 9.91 GiB (98%)
Codec configuration box : avcC

 on ESPN 12 1080p Full Show mp4

Audio
ID : 3
Format : AAC LC
Format/Info : UFC on ESPN Complexity
Codec ID : mp4a-40-2
Duration : 4 h 3 min
Bit rate mode : Constant
Bit rate : 132 kb/s
Channel(s) : 2 channels
Channel layout : L R
Sampling rate : 48.0 kHz
Frame rate : 46.875 FPS (1024 SPF)
UFC on ESPN mode : Lossy
Stream size : 230 MiB (2%)
Default : Yes
Alternate group : 1

 

UFC on ESPN 12 1080p Full Show Free Online

 

 

 

Watch online

 

 

Server 1

 

 

 

 

watch now

 

 

 

 

Server 2

 

 

 

watch now

 

 

 

Server-3

 

 

 

UFC on ESPN

 

 

 

Uploaded By Site DX-TV.com

 

 

 

Download with premium account Links 

 

 

Keep2Share

 

 

rapidgator.net

 

 

uploadgig.com

 

 

 

dx-tv.com

 

urlfree.net

 98 total views,  2 views today

Leave a Reply

Your email address will not be published. Required fields are marked *

This site uses Akismet to reduce spam. Learn how your comment data is processed.

%d bloggers like this:
Optimized with PageSpeed Ninja