UFC on ESPN 12 720p Full Show Free Online

Watch UFC on ESPN 12 720p Full Show Free Online DX-TV

 

UFC on ESPN 12

 UFC on ESPN 12

 

UFC on ESPN 12 720p Full Show Free Online

 

 

Complete name : UFC.on.ESPN.12.720p.WEB-DL.mp4
Format : MPEG-4
Format profile : Base Media
Codec ID : isom
File size : 5.41 GiB
Duration : 4 h 5 min
UFC on ESPN mode : Variable
Overall bit rate : 3 156 kb/s
Writing application : Lavf58.12.100

 on ESPN 12 720p Full Show Free Online

Video
ID : 2
Format : AVC
Format/Info : Advanced Video Codec
aprofile : [email protected]
Format settings : CABAC / 4 Ref Frames
UFC on ESPN, CABAC : Yes
Format settings, Reference : 4 frames
Format settings, GOP : M=1, N=60
Codec ID : avc1
Codec ID/Info : UFC on ESPN Coding
Duration : 4 h 5 min
Bit rate mode : Variable
Bit rate : 3 014 kb/s
Maximum bit rate : 3 159 kb/s
Width : 1 280 pixels
Height : 720 pixels
Display aspect ratio : 16:9
Frame rate mode : Variable
Frame rate : 30.000 FPS
Minimum frame rate : 29.412 FPS
Maximum frame rate : 30.303 FPS
Standard : NTSC
Color space : YUV
Chroma subsampling : 4:2:0
Bit depth : 8 bits
Scan type : Progressive
Bits/(UFC on ESPN) : 0.109
Stream size : 5.16 GiB (96%)
Color range : Limited
Color primaries : BT.709
Transfer characteristics : BT.709
Matrix coefficients : BT.709
Codec configuration box : avcC

 on ESPN 12 720p Full Show Free Online

Audio
ID : 3
Format : AAC LC
Format/Info : UFC on ESPN Complexity
Codec ID : mp4a-40-2
Duration : 4 h 5 min
Bit rate mode : Constant
Bit rate : 132 kb/s
Channel(s) : 2 channels
Channel layout : L R
Sampling rate : 48.0 kHz
Frame rate : 46.875 FPS (1024 SPF)
UFC on ESPN mode : Lossy
Stream size : 231 MiB (4%)
Default : Yes
Alternate group : 1

 

UFC on ESPN 12 720p Full Show Free Online

 

 

 

Watch online

 

 

Server 1

 

 

 

 

watch now

 

 

 

 

Server 2

 

 

 

watch now

 

 

 

Server-3

 

 

 

UFC on ESPN

 

 

 

Uploaded By Site DX-TV.com

 

 

 

Download with premium account Links 

 

 

Keep2Share

 

 

nitroflare.com

 

 

rapidgator.net

 

 

uploadgig.com

 

 

 

dx-tv.com

 

urlfree.net

 107 total views,  1 views today

Leave a Reply

Your email address will not be published. Required fields are marked *

This site uses Akismet to reduce spam. Learn how your comment data is processed.

%d bloggers like this:
Optimized with PageSpeed Ninja