ICW No Holds Barred 27 06 2020 Deathmatch Drive-In

Watch ICW No Holds Barred 27 06 2020 Deathmatch Drive-In DX-TV

 

ICW No Holds Barred

 ICW No Holds Barred
 

 

ICW No Holds Barred 27 06 2020 Deathmatch Drive-In

 

Saturday, June 27th, 2020

From Atlantic City, New Jersey:

Full Card

  • Casanova Valentine vs Nick Gage

  • Dominic Garrini vs Tony Deppen

  • Akira vs Reed Bentley

  • Matt Tremont vs Brandon Kirk

  • Eric Ryan vs Alex Coolon

  • John Wayne Murdoch vs SHLAK

 

ICW No Holds Barred 27 06 2020 

 

Complete name : 2020.06.27 ICW No Holds Barred-Deathmatch Drive-In.mp4
Format : MPEG-4
Format profile : Base Media
Codec ID : isom
File size : 1.24 GiB
Duration : 1 h 46 min
ICW No Holds rate : 1 675 kb/s
Writing application : Lavf58.29.100

 No Holds Barred 27 06 2020 Deathmatch Drive-In

Video
ID : 1
Format : AVC
Format/Info : Advanced Video Codec
Wprofile : [email protected]
Esettings : CABAC / 4 Ref Frames
Format settings, CABAC : Yes
ICW No Holds , : 4 frames
Codec ID : avc1
Codec ID/Info : ICW No Holds Coding
Duration : 1 h 46 min
Bit rate : 1 536 kb/s
Width : 1 280 pixels
Height : 720 pixels
Display aspect ratio : 16:9
Frame rate mode : Variable
Frame rate : 29.970 FPS
Minimum frame rate : 29.960 FPS
Maximum frame rate : 29.970 FPS
Color space : YUV
Chroma subsampling : 4:2:0
Bit depth : 8 bits
Scan type : Progressive
Bits/(ICW No Holds) : 0.056
Stream size : 1.14 GiB (92%)
Codec configuration box : avcC

 No Holds Barred 27 06 2020 Deathmatch Drive-In

Audio
ID : 2
Format : AAC LC
Format/Info : ICW No Holds Low Complexity
Codec ID : mp4a-40-2
Duration : 1 h 46 min
Bit rate mode : Constant
Bit rate : 132 kb/s
Channel(s) : 2 channels
Channel layout : L R
Sampling rate : 48.0 kHz
Frame rate : 46.875 FPS (1024 SPF)
ICW No Holds mode : Lossy
Stream size : 98.8 MiB (8%)
Default : Yes
Alternate group : 1

 

ICW No Holds Barred 27 06 2020 Deathmatch Drive-In

 

 

 

Watch online

 

 

Server 1

 

 

 

 

watch now

 

 

 

 

Server 2

 

 

 

watch now

 

 

 

Server-3

 

 

 

ICW No Holds

 

 

 

Uploaded By Site DX-TV.com

 

 

 

Download with premium account Links 

 

 

Keep2Share

 

 

nitroflare.com

 

 

rapidgator.net

 

 

uploadgig.com

 

 

 

dx-tv.com

 

urlfree.net

 287 total views,  6 views today

Leave a Reply

Your email address will not be published. Required fields are marked *

This site uses Akismet to reduce spam. Learn how your comment data is processed.

%d bloggers like this:
Optimized with PageSpeed Ninja