UFC Fight Night 182 Santos vs Teixeira Prelims /720p

Watch UFC Fight Night 182 Santos vs Teixeira Prelims Free Online /720p DX-TV

UFC Fight Night 182 Santos vs Teixeira

 

 UFC Fight Night 182 Santos vs Teixeira
 


 

 

UFC Fight Night 182 Santos vs Teixeira Prelims /720p

 

Complete name : UFC.Fight.Night.182.Santos.vs.Teixeira.Prelims.mp4
Format : MPEG-4
Format profile : Base Media
Codec ID : isom
File size : 1.46 GiB
Duration : 2 h 58 min
Overall bit rate mode : Variable
Overall bit rate : 1 174 kb/s
Writing application : Lavf58.12

UFC Fight Night 182 Santos vs Teixeira

Video
ID : 2
Format : AVC
Duration : 2 h 58 min
Bit rate mode : Variable
Bit rate : 1 034 kb/s
Maximum bit rate : 1 069 kb/s
Width : 896 pixels
Height : 504 pixels
Display aspect ratio : 16:9
Frame rate mode : Variable
Frame rate : 30.000 FPS
Standard : NTSC
Color space : YUV
Chroma subsampling : 4:2:0
Bit depth : 8 bits
Scan type : Progressive
Bits/(Pixel*Frame) : 0.076
Stream size : 1.29 GiB
Color range : Limited
Color primaries : BT.709
Transfer characteristics : BT.709
Matrix coefficients : BT.709
Codec configuration box : avcC

UFC Fight Night 182 Santos vs Teixeira

Audio
ID : 3
Format : AAC LC
Format/Info : Advanced Audio
Codec ID : mp4a-40-2
Duration : 2 h 58 min
Bit rate mode : Constant
Bit rate : 132 kb/s
Channel(s) : 2 channels
Channel layout : L R
Sampling rate : 48.0 kHz
Frame rate : 46.875 FPS
Compression mode : Lossy
Stream size : 168 MiB
Default : Yes
Alternate group : 1

UFC Fight Night 182 Santos vs Teixeira

Santos vs. Teixeira

At this point, Teixeira is like the old crafty guy who plays pickup basketball with guys half his age, schooling them with every old trick in the book.

He doesn’t have elite athleticism and the one-punch knockout power is gone, but he’s smart and durable. 

That was enough against Smith in his last fight.

He weathered early storms from his younger opponent before taking over in the latter rounds and overwhelming the 32-year-old. 

The same things will be difficult to do against Santos.

UFC Fight Night 182 Santos vs Teixeira

The Brazilian throws strikes with the intention to end fights and oftentimes does.

The 36-year-old had three straight finishes before his fight with Jones, in which he tagged the former champion as well. 

Teixeira’s fortunate run of cunning wins may find its end in this one. Santos’ power is the X-factor.

If Teixeira can drag him to the mat for the majority of five rounds, he can pick up another win.

but if he stands with Santos for extended exchanges, it could be a short night. 

 

 Fight Night 182 Santos vs Teixeira Prelims /720p

 

Watch online

 

 

Server 1

 

 

 

 

UFC Fight Night 182 Santos vs Teixeira

 

 

 

 

Server-2

 

 

 

watch now

 

 

 

 

 

 

Uploaded By Site DX-TV.com

 

 

 

 

Download Free Links with normal and high Speed [ more 14 hosts ]  

 

[su_expand more_text=”Show Hosts Info” less_text=”Close all Info” height=”30″ text_color=”#000000″ link_color=”#e25f8b” link_style=”button” more_icon=”icon: arrow-down” less_icon=”icon: arrow-up”]

 Fight Night 182 Santos vs Teixeira

 

hexupload.net – clicknupload.co – www.multiup.org – uptobox.com – anonfiles.com – userscloud.com –

dropapk.to alfafile.net – ddownload.com – rockfile.co – 1fichier.com – filedown.org – katfile.com – filerio.in

 

 

[/su_expand]

 

 

540p

 

http://shrt10.com/94b9BEAO
http://shrt10.com/WRqQo8bW
http://shrt10.com/oh7Gr
http://shrt10.com/Sxmj5NeG0
http://shrt10.com/KnkJhFp
http://shrt10.com/lWahMy
http://shrt10.com/yF0mhS
http://shrt10.com/69nwT

 

 Fight Night 182 Santos vs Teixeira

 

720p

 

http://shrt10.com/g6uA8VEL5
http://shrt10.com/fDoUR
http://shrt10.com/663FJ8Xmx
http://shrt10.com/ALMVYn
http://shrt10.com/ou6ocjFSp
http://shrt10.com/xz916

 

 

 

 

 

Download Links with premium High Speed   

 

 

 

 

dropapk.to

http://shrt10.com/XjfEZ
http://shrt10.com/Moj3pSy

 

 

nitroflare.com

http://shrt10.com/eOmjvs
http://shrt10.com/4GKMSMlGd

 

 

rapidgator.net

http://shrt10.com/K9KhTEe
http://shrt10.com/LV8vB6

 

 

uploaded.net

http://shrt10.com/47tkVU
http://shrt10.com/MVRIX7VK

 

 

uploadgig.com

http://shrt10.com/yhHXlmf
http://shrt10.com/J6Yz3i

 

 

 

 

dx-tv.com

 

urlfree.net

Leave a Reply

Your email address will not be published. Required fields are marked *

This site uses Akismet to reduce spam. Learn how your comment data is processed.