Free AEW Full Gear 2020 Buy In 720p Full Show Online

Watch Free AEW Full Gear 2020 Buy In 720p Full Show Online DX-TV

Free AEW Full Gear 2020

 

 Free AEW Full Gear 2020
 

 

Free AEW Full Gear 2020 Buy In 720p Full Show Online

 

 

 

 

Complete name : AEW Full Gear Buy In 2020 11 07 WEB DX-TV.com.mp4
Format : MPEG-4
Format profile : Base Media
Codec ID : isom
File size : 1.53 GiB
Duration : 1 h 0 min
bit rate mode : Variable
Overall bit rate : 3 636 kb/s
application : Lavf58.25

Free AEW Full Gear 2020

Video
ID : 1
Format : AVC
Duration : 1 h 0 min
Bit rate mode : Constant
Bit rate : 3 500 kb/s
Width : 1 280 pixels
Height : 720 pixels
Display aspect ratio : 16:9
Frame rate mode : Variable
Frame rate : 29.970 FPS
Color space : YUV
Chroma subsampling : 4:2:0
Bit depth : 8 bits
Scan type : Progressive
Bits/(Pixel*Frame) : 0.127
Stream size : 1.47 GiB (96%)
Codec configuration box : avcC

Free AEW Full Gear 2020

Audio
ID : 2
Format : AAC LC
Format/Info : Advanced Audio
Codec ID : mp4a-40-2
Duration : 1 h 0 min
Bit rate mode : Variable
Bit rate : 126 kb/s
Maximum bit rate : 128 kb/s
Channel(s) : 2 channels
Channel layout : L R
Sampling rate : 44.1 kHz
Frame rate : 43.066 FPS
Compression mode : Lossy
Stream size : 54.1 MiB
Default : Yes
Alternate group : 1

 

Free AEW Full Gear 2020

AEW Full Gear Card:

  • Jon Moxley (c) vs. Eddie Kingston – I Quit Match for the AEW World Championship

  • FTR (Cash Wheeler and Dax Harwood) (c) (with Tully Blanchard) vs. The Young Bucks (Matt Jackson and Nick Jackson)

  • Tag Team Match for AEW Tag Team Championship

  • Cody (c) (with Arn Anderson) vs. Darby Allin – Singles Match for the TNT Championship

  • Hikaru Shida (c) vs. Nyla Rose (with Vickie Guerrero) – Singles Match for the AEW Women’s Championship

  • Adam Page vs. Kenny Omega – AEW World Championship Eliminator Tournament Finals Match

  • Chris Jericho vs. MJF (with Wardlow) – If MJF wins, he is allowed to join The Inner Circle

  • Matt Hardy vs. Sammy Guevara – The Elite Deletion Match

  • Orange Cassidy vs. John Silver – Singles Match

 

 AEW Full Gear 2020 Buy In 720p Full Show Online

 

Watch online

 

 

Server 1

 

 

 

 

Free AEW Full Gear 2020

 

 

 

 

Server-2

 

 

 

watch now

 

 

 

 

 

 

Uploaded By Site DX-TV.com

 

 

 

 

Download Free Links with normal and high Speed [ more 14 hosts ]  

 

[su_expand more_text=”Show Hosts Info” less_text=”Close all Info” height=”30″ text_color=”#000000″ link_color=”#e25f8b” link_style=”button” more_icon=”icon: arrow-down” less_icon=”icon: arrow-up”]

 

 AEW Full Gear 2020

hexupload.net – clicknupload.co – www.multiup.org – uptobox.com – anonfiles.com – userscloud.com –

dropapk.to alfafile.net – ddownload.com – rockfile.co – 1fichier.com – filedown.org – katfile.com – filerio.in

 

 

[/su_expand]

 

 

http://shrt10.com/P0lj2Uu
http://shrt10.com/vzKKP7QWP
http://shrt10.com/vCaC5
http://shrt10.com/v1RHo
http://shrt10.com/5bPEWv
http://shrt10.com/z7ZtU
http://shrt10.com/BfsrFHa
http://shrt10.com/k8gXN

 

 

 

 

Download Links with premium High Speed   

 

 

 

 

dropapk.to

 

 

 

nitroflare.com

 

 

 

rapidgator.net

 

 

 

uploaded.net

 

 

 

uploadgig.com

 

 

 

 

 

dx-tv.com

 

urlfree.net

Leave a Reply

Your email address will not be published. Required fields are marked *

This site uses Akismet to reduce spam. Learn how your comment data is processed.