Watch Santos vs Teixeira Prelims UFC Fight Night 182 1080p

Free UFC Fight Night 182 Santos vs Teixeira Prelims 1080p DX-TV

Watch UFC Fight Night 182

 

 UFC Fight Night 182 Santos vs Teixeira

Watch Santos vs Teixeira Prelims UFC Fight Night 182 1080p

 

Complete name : UFC.Fight.Night.182.Santos.vs.Teixeira.Prelims.1080p.mp4
Format : MPEG-4
Format profile : Base Media
Codec ID : isom
File size : 7.32 GiB
Duration : 2 h 56 min
Overall bit rate mode : Variable
Overall bit rate : 5 948 kb/s
Writing application : Lavf58.12.100

Watch UFC Fight Night 182

Video
ID : 2
Format : AVC
Duration : 2 h 56 min
Bit rate mode : Variable
Bit rate : 5 806 kb/s
Maximum bit rate : 5 906 kb/s
Width : 1 920 pixels
Height : 1 080 pixels
Display aspect ratio : 16:9
Frame rate mode : Variable
Frame rate : 30.000 FPS
Color space : YUV
Chroma subsampling : 4:2:0
Bit depth : 8 bits
Scan type : Progressive
Bits/(Pixel*Frame) : 0.093
Stream size : 7.15 GiB (98%)
Codec configuration box : avcC

Watch UFC Fight Night 182

Audio
ID : 3
Format : AAC LC
Format/Info : Advanced Audio
Codec ID : mp4a-40-2
Duration : 2 h 56 min
Bit rate mode : Constant
Bit rate : 132 kb/s
Channel(s) : 2 channels
Channel layout : L R
Sampling rate : 48.0 kHz
Frame rate : 46.875 FPS (1024 SPF)
Compression mode : Lossy
Stream size : 166 MiB (2%)
Default : Yes
Alternate group : 1

Watch UFC Fight Night 182

Gadelha vs. Xiaonan

One of the more important fights on the card, the women’s strawweight fight between Claudia Gadelha and Yan Xiaonan.

will play a direct role in who is in the mix for a title shot in the division. 

Gadelha has been uneven since her failed bid for the title against Joanna Jedrzejczyk in 2016.

She’s definitely hit a wall in which she beats the fighters she is clearly better than.

but losses to Jessica Andrade and Nina Ansaroff show she still has work to do. 

The rubber is going to meet the road in her matchup against Xiaonan.

 

Watch Santos vs Teixeira Prelims UFC Fight Night 182 1080p

 

Watch online

 

 

Server 1

 

 

 

 

Watch UFC Fight Night 182

 

 

 

 

Server-2

 

 

 

watch now

 

 

 

 

Watch UFC Fight Night 182

 

Uploaded By Site DX-TV.com

 

Download Links with premium High Speed   

 

 

 

 

dropapk.to

 

 

 

nitroflare.com

 

 

 

rapidgator.net

 

 

 

dx-tv.com

 

urlfree.net

Leave a Reply

Your email address will not be published. Required fields are marked *

This site uses Akismet to reduce spam. Learn how your comment data is processed.