UFC Fight Night 179 Full Show Online 2020 10 11

Watch UFC Fight Night 179 Full Show Online 2020 10 11 DX-TV

 

UFC Fight Night 179

 

 UFC Fight Night 179

 

UFC Fight Night 179 Full Show Online 2020 10 11

 

Amirkhani Stifles Barboza for Decision

The upset predictions keep coming here as Makwan Amirkhani is a fairly large dog against Edson Barboza but has a better shot than the odds indicate. 

Some of the respect for Barboza comes from his legacy. For years, he’s strung together highlight-reel finishes throughout his career and is one of the best pure kickboxers in the game.

The problem is he isn’t as consistent as he used to be and has struggled to a 1-5 record over his last six fights. 

Barboza needs space to do his best work. When he’s able to fight in the open, he will chop his opponents down with leg kicks and slowly take their will before finishing things off with a head kick.

When he’s forced to fight off the back foot, there aren’t as many weapons available to him. 

 

UFC Fight Night 179

Amirkhani is a relentless wrestler. He’s not necessarily efficient, but he has fly-like persistence.

He averages 3.45 takedowns per 15 minutes despite a 36 percent success rate.

Barboza has been difficult to take down with an 80 percent takedown defense,

but he’s going to have to spend a large bulk of rounds defending. 

That’s not what he wants to do, and if he can’t turn it into offense, he could suddenly find himself in trouble in a three-round fight. 

This prediction isn’t that Amirkhani will soundly beat Barboza .

but rather that the kickboxer is going to run out of time without getting enough offense in to finish the fight.

The judges may favor Amirkhani’s control over Barboza’s damage. 

UFC Fight Night 179

Complete name : UFC.Fight.Night.179.WEB-DX-TV.COM.mp4
Format : MPEG-4
Format profile : Base Media
Codec ID : isom
File size : 1.26 GiB
Duration : 2 h 34 min
bit rate mode : Variable
Overall bit rate : 1 166 kb/s
Writing application : Lavf58.12.100

UFC Fight Night 179

Video
ID : 1
Format : AVC
Duration : 2 h 34 min
Bit rate mode : Variable
Bit rate : 1 026 kb/s
Maximum bit rate : 1 069 kb/s
Width : 896 pixels
Height : 504 pixels
Display aspect ratio : 16:9
Frame rate mode : Variable
Frame rate : 30.000 FPS
Standard : NTSC
Color space : YUV
Chroma subsampling : 4:2:0
Bit depth : 8 bits
Scan type : Progressive
Bits/(Pixel*Frame) : 0.076
Stream size : 1.11 GiB (88%)
Color primaries : BT.709
Transfer characteristics : BT.709
Matrix coefficients : BT.709
Codec configuration box : avcC

UFC Fight Night 179

Audio
ID : 2
Format : AAC LC
Format/Info : Advanced Audio
Codec ID : mp4a-40-2
Duration : 2 h 34 min
Bit rate mode : Variable
Bit rate : 132 kb/s
Maximum bit rate : 145 kb/s
Channel(s) : 2 channels
Channel layout : L R
Sampling rate : 48.0 kHz
Frame rate : 46.875 FPS (1024 SPF)
Compression mode : Lossy
Stream size : 146 MiB (11%)
Default : Yes
Alternate group : 1

 

 

 

UFC Fight Night 179 Full Show Online 2020 10 11

 

 

Watch online

 

 

 

Server 1

 

 

 

 

watch now

 

 

 

 

Server-2

 

 

 

UFC Fight Night 179

 

 

 

 

Server-3

 

 

 

UFC Fight Night 179

 

 

 

 

Uploaded By Site DX-TV.com

 

 

 

 

Download Free Links with normal and high Speed [ more 14 hosts ]  

 

 

 

 

http://shrt10.com/efYUUZ
http://shrt10.com/dr7B7
http://shrt10.com/i1chJo
http://shrt10.com/ihcn5E
http://shrt10.com/fs7wT0XI0
http://shrt10.com/hcxgweOaO
http://shrt10.com/GWWhfq
http://shrt10.com/QrJlRc
http://shrt10.com/OAZGQXtTz
http://shrt10.com/ZgapZtwgC
http://shrt10.com/rDArZLPMg
http://shrt10.com/wH05tpnns

 

 

 

Download Links with premium High Speed   

 

 

 

 

 

dropapk.to

 

 

 

nitroflare.com

 

 

 

rapidgator.net

 

 

 

uploaded.net

 

 

 

uploadgig.com

 

 

 

 

 

dx-tv.com

 

urlfree.net

Leave a Reply

Your email address will not be published. Required fields are marked *

This site uses Akismet to reduce spam. Learn how your comment data is processed.