RevPro Epic Encounters 3 Full Show Online 2020 10 06

Watch RevPro Epic Encounters 3 2020 10 06 1080p DX-TV

 

RevPro Epic Encounters 3

 

 RevPro Epic Encounters 3

 

RevPro Epic Encounters 3 Full Show Online 2020 10 06

 

 

Name of the event: RevPro Epic Encounters 3
Date: 04.10.2020
Promotion: Revolution Pro Wrestling
Type: Pay Per View
Location: Portsmouth, Hampshire, England, UK
Arena: Portsmouth School Of Wrestling
Broadcast type: Aufzeichnung
Broadcast date: 04.10.2020
TV station/network: FITE TV

RevPro Epic Encounters 3

 

Singles Match
Robbie X defeated JJ Gale.

Singles Match
Mad Kurt defeated Gideon Grey.

Singles Match
Bobbi Tyler defeated Jamie Hayter.

Best Of Five Series Match #3
Kenneth Halfpenny defeated Brendan White. As things stand, Brendan White leads 2-1.

Singles Match
Aleah James defeated Zoe Lucas.

Singles Match
Ricky Knight Jr defeated Connor Mills.

RevPro Undisputed British Heavyweight Championship Match
Will Ospreay (c) defeated Kyle Fletcher.

 

RevPro Epic Encounters 3

The headline match of RevPro’s Epic Encounters event saw a preview of future title matches at Undisputed British Heavyweight Champion CHAOS member .

Will Ospreay teamed with Undisputed British Cruiserweight Champion Michael Oku against Kyle Fletcher and Speed King Champion Ricky Knight Jr (RKJ).

Fletcher will receive the next opportunity at the Undisputed British Heavyweight Championship,

while RKJ and Oku will wrestle on September 13th in the marquee of the Epic Encounters Two event for the Undisputed British Cruiserweight Championship in a unification match.

The match itself started quickly but did have traditional tag team wrestling moments during the middle.

The ending sequences were in the post-2005 tag team style which saw RKJ pin Osprey at the 15 minute.

and 30-second mark in what could set up a future program between the two.

After the match, there was a bit of tension between Fletcher and RKJ, which could also play into a future program.

RKJ pinning Ospreay makes the Speed King Champion the favorite against Michael Oku later.

this month, yet Oku will look to overcome the odds once again.

RevPro Epic Encounters 3

Complete name : RevPro Epic Encounters 3 2020 10 06 1080p WEB H264 DX-TV.com.mp4
Format : MPEG-4
Format profile : Base Media
Codec ID : isom
File size : 3.75 GiB
Duration : 2 h 7 min
Overall bit rate : 4 220 kb/s
application : Lavf58.25.100

 Epic Encounters 3

Video
ID : 1
Format : AVC
Duration : 2 h 7 min
Duration_FirstFrame : -40 ms
Bit rate : 4 022 kb/s
Width : 1 920 pixels
Height : 1 080 pixels
Display aspect ratio : 16:9
Frame rate mode : Variable
Frame rate : 25.000 FPS
Color space : YUV
Chroma : 4:2:0
Bit depth : 8 bits
Scan type : Progressive
Bits/(Pixel*Frame) : 0.078
Stream size : 3.57 GiB (95%)
Color range : Limited
Color primaries : BT.709
Transfer characteristics : BT.709
Matrix coefficients : BT.709
Codec configuration box : avcC

 Epic Encounters 3

Audio
ID : 2
Format : AAC LC
Format/Info : Advanced Audio
Codec ID : mp4a-40-2
Duration : 2 h 7 min
Bit rate mode : Constant
Bit rate : 192 kb/s
Channel(s) : 2 channels
Channel layout : L R
Sampling rate : 48.0 kHz
Frame rate : 46.875 FPS
Compression mode : Lossy
Stream size : 175 MiB (5%)
Default : Yes
Alternate group : 1

 

 

 

 

RevPro Epic Encounters 3 Full Show Online 2020 10 06

 

 

 

 

Watch online

 

 

 

 

 

Server 1

 

 

 

 

watch now

 

 

 

 

Server-2

 

 

 

RevPro Epic Encounters 3

 

 

 

 

Server-3

 

 

 

watch now

 

 

 

 

Uploaded By Site DX-TV.com

 

 

 

Download Links with premium High Speed   

 

 

nitroflare.com

 

 

 

rapidgator.net

 

 

 

uploaded.net

 

 

 

uploadgig.com

 

 

 

 

 

dx-tv.com

 

urlfree.net

Leave a Reply

Your email address will not be published. Required fields are marked *

This site uses Akismet to reduce spam. Learn how your comment data is processed.