Watch Online UFC Fight Night 179 720p Free 2020 10 11

Online UFC Fight Night 179 720p Free 2020 10 11 DX-TV

 

Watch Online UFC Fight Night 179

 

 Watch Online UFC Fight Night 179

 

Watch Online UFC Fight Night 179 720p Free 2020 10 11

 

Rothwell Wins Ugly Affair with Tybura

No one’s fighting style has ever matched their aesthetic quite like Ben Rothwell. The veteran heavyweight .

will never be called an Adonis or pick up a ton of advertising deals, but he gets the job done. 

Rothwell is a plodding fighter who gets by on toughness, durability,

savvy and just enough power to end a fight here and there. After back-to-back losses to open 2019,

it looked like Big Ben had finally reached his decline, but now he’s looking for his third win in a row against Marcin Tybura. 

Watch Online UFC Fight Night 179

Tybura doesn’t always make things look pretty, either. He has a grappling-heavy style when he gets to dictate the fight,

and wants to impose his will on the ground rather than get in a kickboxing match. 

The kickboxing has looked passable at times, but it isn’t a strength. The problem is that Tybura struggles to impose that will against bigger,

heavier opponents, and Rothwell fits that bill. If Tybura’s plan is to outgrind Rothwell, it’s going to be a problem. 

Big Ben has the ability to surprise with a submission if the situation dictates and has the clinch striking to win in an ugly fight.

Watch Online UFC Fight Night 179

At the end of the day 

As explosive and dangerous as Moraes is, he often pays for expelling all of that energy early and often,

and the later the fight goes, the less dangerous he becomes.

The Brazillian has far more experience against high-level competition than his counterpart,

but Sandhagen is starting to come into his own and is on the cusp of breaking through.

Sandhagen will weather the early storm and come on strong in the later rounds to edge out a decision. 

Watch Online UFC Fight Night 179

Complete name : UFC.Fight.Night.180.720p.WEB-DX-TV.mp4
Format : MPEG-4
Format profile : Base Media
Codec ID : isom
File size : 3.38 GiB
Duration : 2 h 34 min
Overall bit rate mode : Variable
Overall bit rate : 3 125 kb/s
Writing application : Lavf58.12.100

Watch Online UFC Fight Night 179

Video
ID : 1
Format : AVC
Format/Info : Advanced
Duration : 2 h 34 min
Bit rate mode : Variable
Bit rate : 2 985 kb/s
Maximum bit rate : 3 159 kb/s
Width : 1 280 pixels
Height : 720 pixels
Display aspect ratio : 16:9
Frame rate mode : Variable
Frame rate : 30.000 FPS 
Standard : NTSC
Color space : YUV
Chroma subsampling : 4:2:0
Bit depth : 8 bits
Scan type : Progressive
Bits/(Pixel*Frame) : 0.108
Stream size : 3.23 GiB (96%)
Color primaries : BT.709
Transfer characteristics : BT.709
Matrix coefficients : BT.709
Codec configuration box : avcC

Watch Online UFC Fight Night 179

Audio
ID : 2
Format : AAC LC
Format/Info : Advanced Audio
Codec ID : mp4a-40-2
Duration : 2 h 34 min
Bit rate mode : Variable
Bit rate : 132 kb/s
Maximum bit rate : 136 kb/s
Channel(s) : 2 channels
Channel layout : L R
Sampling rate : 48.0 kHz
Frame rate : 46.875 FPS
Compression mode : Lossy
Stream size : 146 MiB (4%)
Default : Yes
Alternate group : 1

 

 

 

Watch Online UFC Fight Night 179 720p Free 2020 10 11

 

 

 

 

Watch online

 

 

 

 

 

Server 1

 

 

 

 

watch now

 

 

 

 

Server-2

 

 

 

watch now

 

 

 

 

Server-3

 

 

 

Watch Online UFC Fight Night 179

 

 

 

 

Uploaded By Site DX-TV.com

 

 

 

 

Download Free Links with normal and high Speed [ more 14 hosts ]  

 

 

 

 

http://shrt10.com/3QzHl
http://shrt10.com/QEhw9tC
http://shrt10.com/ii7cb
http://shrt10.com/up9aJ
http://shrt10.com/0M6X5ta
http://shrt10.com/GkDar
http://shrt10.com/b8mlcCEM
http://shrt10.com/FqgYwvTsW

 

 

 

Download Links with premium High Speed   

 

 

 

 

dropapk.to

 

 

 

nitroflare.com

 

 

 

rapidgator.net

 

 

 

uploaded.net

 

 

 

uploadgig.com

 

 

 

 

 

dx-tv.com

 

urlfree.net

Leave a Reply

Your email address will not be published. Required fields are marked *

This site uses Akismet to reduce spam. Learn how your comment data is processed.