UFC 256 Free Online Figueiredo vs Moreno DX-TV

UFC 256 Free Online Figueiredo vs Moreno PPV HDTV Star DX-TV

UFC 256 Free Online

 

 UFC 256 Free Livestream

 

Download Links with premium High Speed   

 

 

dropapk.to

http://shrt10.com/YeZEnW3

 

 

nitroflare.com

http://shrt10.com/yaYOoSIJ

 

 

rapidgator.net

http://shrt10.com/noBvvyx

 

 

uploaded.net

http://shrt10.com/8G0JIgW

 

 

uploadgig.com

http://shrt10.com/Js2SI

 

 

Watch online

 

Server 1

UFC 256 Free Online

 

 

 

UFC 256 Free Online

 

 

 

 

Server-2

 

 

 

 

watch now

 

 

 

 

Uploaded By Site DX-TV.com

 

 

 

[su_expand more_text=”Show More Info” less_text=”Close all Info” height=”50″ text_color=”#000000″ link_color=”#e25f8b” link_style=”button” more_icon=”icon: arrow-down” less_icon=”icon: arrow-up”]
Complete name : UFC.256.PPV.Figueiredo.vs.Moreno.HDTV.x264-Star.mp4
Format : MPEG-4
Format profile : Base Media
Codec ID : mp42
File size : 2.11 GiB
Duration : 3 h 33 min
Overall bit rate : 1 419 kb/s

 256 Free Online

Video
ID : 1
Format : AVC
Duration : 3 h 33 min
Bit rate : 1 300 kb/s
Width : 720 pixels
Height : 480 pixels
Display aspect ratio : 16:9
Original display aspect rat : 16:9
Frame rate mode : Constant
rate : 29.970 (30000/1001) FPS
Standard : NTSC
Color space : YUV
Chroma subsampling : 4:2:0
Bit depth : 8 bits
Scan type : Progressive
Bits/(Pixel*Frame) : 0.126
Stream size : 1.93 GiB (91%)
Color range : Limited
Color primaries : BT.601 NTSC
Transfer characteristics : BT.709
Matrix coefficients : BT.60
Codec configuration box : avc

 256 Free Online

Audio
ID : 2
Format : AAC LC
Codec ID : mp4a-40-2
Duration : 3 h 33 min
Bit rate mode : Constant
Bit rate : 112 kb/s
Channel(s) : 2 channels
Channel layout : L R
Sampling rate : 48.0 kHz
Frame rate : 46.875 FPS
Compression mode : Lossy
Stream size : 171 MiB
Title : Stereo
Default : Yes
Alternate group : 1

Duration : 3 h 33 min
Bit rate mode : Constant
Bit rate : 112 kb/s
Channel(s) : 2 channels
Channel layout : L R
Sampling rate : 48.0 kHz
Frame rate : 46.875 FPS
Compression mode : Lossy
Stream size : 171 MiB
Title : Stereo
Default : Yes
Alternate group : 1

UFC 256 Online

[/su_expand]

 

https://dx-tv.com/

Leave a Reply

Your email address will not be published. Required fields are marked *

This site uses Akismet to reduce spam. Learn how your comment data is processed.