Watch Wrestling Online DDT 2020 12 D-King Grand Prix 2021

Watch Wrestling Online DDT 2020 12 12 D-King Grand Prix 2021 in Narimasu DX-TV

Watch Wrestling Online

 Watch Wrestling Online

 

Download Links with premium High Speed   

 

 

dropapk.to

http://shrt10.com/pMcWP

 

 

nitroflare.com

http://shrt10.com/EEbXy032

 

 

rapidgator.net

http://shrt10.com/JqMaijb

 

 

uploaded.net

http://shrt10.com/YEHtq

 

 

uploadgig.com

http://shrt10.com/clErxMBvL

 

Watch Wrestling Online

Watch Wrestling  

 

Server 1

 

 

 

 

Watch Wrestling Online

 

 

 

 

Server-2

 

 

 

 

watch now

 

 

 

 

Uploaded By Site DX-TV.com

 

[su_expand more_text=”Show More Info” less_text=”Close all Info” height=”50″ text_color=”#000000″ link_color=”#e25f8b” link_style=”button” more_icon=”icon: arrow-down” less_icon=”icon: arrow-up”]
Complete name : DDT.2020.12.12.D-King.Grand.Prix.2021.in.Narimasu.JAPANESE.WEB.h264-LATE.mkv
Format : Matroska
Format version : Version 4
File size : 2.12 GiB
Duration : 2 h 52 min
Overall bit rate : 1 760 kb/s

  Wrestling Online

Video
ID : 1
Format : AVC
Duration : 2 h 52 min
Bit rate : 1 662 kb/s
Width : 960 pixels
Height : 540 pixels
aspect ratio : 16:9
Frame rate mode : Constant
Frame rate : 30.000 FPS
Color space : YUV
Chroma subsampling : 4:2:0
Bit depth : 8 bits
Scan type : Progressive
Bits/(Pixel*Frame) : 0.107
Stream size : 2.00 GiB (94%)
Default : Yes
Forced : No
Color range : Limited
Color primaries : BT.601 PAL
Transfer characteristics : BT.601
Matrix coefficients : BT.470

 Wrestling Online

Audio
ID : 2
Format : AAC LC
Format/Info : Advanced Audio
Codec ID : A_AAC-2
Duration : 2 h 52 min
Bit rate : 96.0 kb/s
Channel(s) : 2 channels
Channel layout : L R
Sampling rate : 44.1 kHz
Frame rate : 43.066 FPS
Compression mode : Lossy
Stream size : 118 MiB (5%)
Language : English
Default : Yes
Forced : No

Sampling rate : 44.1 kHz
Frame rate : 43.066 FPS
Compression mode : Lossy
Stream size : 118 MiB (5%)

[/su_expand]

 

https://dx-tv.com/

You May Also Like

Leave a Reply

Your email address will not be published. Required fields are marked *

This site uses Akismet to reduce spam. Learn how your comment data is processed.