UFC 256 Figueiredo vs Moreno 720p Full Show DX-TV

UFC 256 Figueiredo vs Moreno 720p Full Show VERUM DX-TV

UFC 256 Figueiredo vs Moreno

 

 UFC 256 Free Livestream

 

Download Links with premium High Speed   

 

 

dropapk.to

 

 

 

nitroflare.com

 

 

 

rapidgator.net

 

 

uploadgig.com

 

 

UFC 256 Figueiredo vs Moreno

Watch online

 

Server 1

 

 

 

 

UFC 256 Figueiredo vs Moreno

 

 

 

 

Server-2

 

 

 

 

watch now

 

 

 

 

Uploaded By Site DX-TV.com

 

 

 

[su_expand more_text=”Show More Info” less_text=”Close all Info” height=”50″ text_color=”#000000″ link_color=”#e25f8b” link_style=”button” more_icon=”icon: arrow-down” less_icon=”icon: arrow-up”]

Complete name : UFC.256.Figueiredo.vs.Moreno.720p.HDTV.x264-VERUM.mkv
Format : Matroska
Format version : Version 4
File size : 5.20 GiB
Duration : 3 h 31 min
Overall bit rate : 3 530 kb/s

UFC 256  

Video
ID : 1
Format : AVC
Duration : 3 h 31 min
Bit rate : 3 076 kb/s
Width : 1 280 pixels
Height : 720 pixels
aspect ratio : 16:9
Frame rate mode : Constant
Frame rate : 50.000 FPS
Color space : YUV
Chroma sampling : 4:2:0
Bit depth : 8 bits
Scan type : Progressive
Bits/(Pixel*Frame) : 0.067
Stream size : 4.53 GiB
Forced : No
Color range : Limited
Color primaries : BT.709
Transfer characteristics : BT.709
Matrix coefficients : BT.709

UFC 256  

Audio
ID : 2
Format : MPEG Audio
version : Version 1
Format profile : Layer 2
Codec ID : A_MPEG/L2
Codec ID/Hint : MP2
Duration : 3 h 31 min
Bit rate mode : Constant
Bit rate : 384 kb/s
Channel(s) : 2 channels
Sampling rate : 48.0 kHz
Compression mode : Lossy
Stream size : 580 MiB (11%)
Language : English
Default : Yes
Forced : No

UFC 256  

Audio
ID : 2
Format : MPEG Audio
version : Version 1
Format profile : Layer 2
Codec ID : A_MPEG/L2
Codec ID/Hint : MP2
Duration : 3 h 31 min
Bit rate mode : Constant
Bit rate : 384 kb/s
Channel(s) : 2 channels
Sampling rate : 48.0 kHz
Compression mode : Lossy
Stream size : 580 MiB (11%)
Language : English
Default : Yes
Forced : No

[/su_expand]

 

https://dx-tv.com/

You May Also Like

Leave a Reply

Your email address will not be published. Required fields are marked *

This site uses Akismet to reduce spam. Learn how your comment data is processed.