UFC 253 Early Prelims 1080p Full Show

Watch UFC 253 Early Prelims 1080p Full Show DX-TV

 

UFC 253 Early Prelims

 

 UFC 253 Early Prelims

 

UFC 253 Early Prelims 1080p Full Show

 

Complete name : UFC.253.EarlyPrelims.1080p.WEB.x264-DaShield.mp4
Format : MPEG-4
Format profile : Base Media
Codec ID : isom
File size : 2.36 GiB
Duration : 57 min 11 s
Overall bit rate mode : Variable
Overall bit rate : 5 911 kb/s
Writing application : Lavf53.24.2

UFC 253 Early Prelims

Video
ID : 1
Format : AVC
Format/Info : Advanced
Duration : 57 min 11 s
Bit rate mode : Variable
Bit rate : 5 771 kb/s
Maximum bit rate : 8 864 kb/s
Width : 1 920 pixels
Height : 1 080 pixels
Display aspect ratio : 16:9
Frame rate mode : Variable
Frame rate : 30.000 FPS
Minimum frame rate : 29.412 FPS
Maximum frame rate : 30.303 FPS
Color space : YUV
Chroma subsampling : 4:2:0
Bit depth : 8 bits
Scan type : Progressive
Bits/(Pixel*Frame) : 0.093
Stream size : 2.30 GiB (98%)
Encoded date : UTC 1970-01-01 00:00:00
Tagged date : UTC 1970-01-01 00:00:00
Codec configuration box : avcC

UFC 253 Early Prelims

Audio
ID : 2
Format : AAC LC
Format/Info : Advanced Audio
Codec ID : mp4a-40-2
Duration : 57 min 11 s
Bit rate mode : Variable
Bit rate : 132 kb/s
Maximum bit rate : 207 kb/s
Channel(s) : 2 channels
Channel layout : L R
Sampling rate : 48.0 kHz
Frame rate : 46.875 FPS (1024 SPF)
Compression mode : Lossy
Stream size : 53.9 MiB (2%)
Default : Yes
Alternate group : 1
Encoded date : UTC 1970-01-01 00:00:00
Tagged date : UTC 1970-01-01 00:00:00

 

 

What time does Israel Adesanya vs. Paulo Costa start?

Coverage for UFC 253 begins on TV at 7 p.m. ET, when early prelim action gets underway. There are six prelim fights scheduled, and they will be stretched out for about three hours.

The UFC 253 main card starts at 10 p.m., but the Israel Adesanya vs. Paulo Costa headliner might not begin for a couple of more hours, perhaps as late as 12:15 a.m. ET.

UFC 253 Early Prelims

  • Date: Saturday, Sept. 26
  • Early prelims: 7 p.m. ET
  • Prelims: 8 p.m. ET
  • Main card: 10 p.m. ET
  • Live stream: ESPN+

 

 253 Early Prelims 1080p Full Show

 

 

 

 

Watch online

 

 

 

 

 

Server 1

 

 

 

 

watch now

 

 

 

 

Server-2

 

 

 

watch now

 

UFC 253 Early Prelims

 

 

Server-3

 

 

 

UFC 253 Early Prelims

 

 

 

 

Uploaded By Site DX-TV.com

 

 

 

 

Download Free Links with normal and high Speed [ more 15 hosts ]  

 

 

 

http://shrt10.com/gFoNV
http://shrt10.com/5ozNW7f
http://shrt10.com/NxWe9zKK4
http://shrt10.com/WdCZA9
http://shrt10.com/QFe5TJZ9
http://shrt10.com/zvENEZ
http://shrt10.com/oKARjC
http://shrt10.com/2s3jPUq
http://shrt10.com/6E3siJoL
http://shrt10.com/b2MynJ

 

 

 

 

Download Links with premium High Speed   

 

 

 

 

 

Keep2Share

 

 

 

uploaded.net

 

 

 

nitroflare.com

 

 

 

rapidgator.net

 

 

 

uploadgig.com

 

 

 

 

 

dx-tv.com

 

urlfree.net

Leave a Reply

Your email address will not be published. Required fields are marked *

This site uses Akismet to reduce spam. Learn how your comment data is processed.