Day 4 NJPW G1 Climax 30 English 2020 09 24 Online

Watch Day 4 NJPW G1 Climax 30 English 2020 09 24 OnlineDX-TV

 

NJPW G1 Climax 30

 

 

 NJPW G1 Climax 30
 


 

 

Day 4 NJPW G1 Climax 30 English 2020 09 24 Online

 

Tetsuya Naito was victorious in the main event in Hokkai Kita Yell on September 24 as B Block took to the ring for the second night of a Sapporo double header in G1 Climax 30.   now joins Toru Yano and Juice Robinson at the top of B Block with 4 points each, while SANADA, Hiroshi Tanahashi and YOSHI-HASHI linger at zero.   G1 Climax 30

NJPW G1 Climax 30

The first group match saw Hirooki Goto and SANADA attempt to avenge Osaka losses. With shoulder heavily taped after the assault from KENTA at the weekend, there was nonetheless no hesitation from the CHAOS member as he tied up and exchanged holds with SANADA before bowling Cold Skull over with a tackle and hip toss. SANADA misdirected Goto out to the floor though, and took control when Goto swung too aggressively at his opponent and lariated the ring post.   G1 Climax 30

NJPW G1 Climax 30

With a shove into the corner, Goto was able to change the flow of the match with a backdrop suplex and left handed bulldog, but SANADA had the edge in mobility, a dropkick followed by a plancha as applause rippled through Hokkai Kita Yell. Back inside, and when Goto attempted Ushigoroshi, SANADA again had the upper hand, escaping and using an O’Connor Roll to get into Skull End, with Goto narrowly making the ropes.

 

[su_expand more_text=”Show More Info” less_text=”Close all Info” height=”30″ text_color=”#000000″ link_color=”#e25f8b” link_style=”button” more_icon=”icon: arrow-down” less_icon=”icon: arrow-up”]

NJPW G1 Climax 30

Complete name : NJPW.2020.09.24.G1.Climax.30.Day.4.ENGLISH.720p.WEB.h264-LATE.mkv
Format : Matroska
Format version : Version 4
File size : 2.19 GiB
Duration : 2 h 34 min
Overall bit rate : 2 032 kb/s

NJPW G1 Climax 30

Video
ID : 1
Format : AVC 
Codec ID : V_MPEG4 
Duration : 2 h 34 min
Bit rate : 1 904 kb/s
Width : 1 280 pixels
Height : 720 pixels
Display aspect ratio : 16:9
Frame rate mode : Constant
Frame rate : 30.000 FPS
Color space : YUV
Chroma subsampling : 4:2:0
Bit depth : 8 bits
Scan type : Progressive
Bits/(Pixel*Frame) : 0.069
Stream size : 2.05 GiB (94%)

NJPW G1 Climax 30

Audio
ID : 2
Format : AAC LC
Format/Info : Advanced Audio
Codec ID : A_AAC-2
Duration : 2 h 34 min
Bit rate : 126 kb/s
Channel(s) : 2 channels
Channel layout : L R
Sampling rate : 44.1 kHz
Frame rate : 43.066 FPS (1024 SPF)
Compression mode : Lossy
Delay relative to video : -23 ms
Stream size : 138 MiB (6%)
Language : English
Default : Yes
Forced : No

 

 

 

Day 4 NJPW G1 Climax 30 English 2020 09 24 Online

 

 

[/su_expand]

 

 

 

Watch online

 

 

[su_expand more_text=”Open Videos Online” less_text=”Close Videos” height=”0″ text_color=”#0859fe” link_color=”#a74a69″ link_style=”button” more_icon=”icon: play” less_icon=”icon: stop”]

 

 

Server 1

 

 

 

 

watch now

 

 

 

 

Server-2

 

 

 

watch now

NJPW G1 Climax 30

 

 

 

Server-3

 

 

 

NJPW G1 Climax 30

 

 

 

[/su_expand]
 

 

 

Uploaded By Site DX-TV.com

 

 

 

 

 

Download Free Links with normal and high Speed [ more 14 hosts ]  

 

[su_expand more_text=”Show Hosts Info” less_text=”Close all Info” height=”30″ text_color=”#000000″ link_color=”#e25f8b” link_style=”button” more_icon=”icon: arrow-down” less_icon=”icon: arrow-up”]

 

NJPW G1 Climax 30

 

hexupload.net – clicknupload.co – www.multiup.org – uptobox.com – anonfiles.com – userscloud.com –

dropapk.to alfafile.net – ddownload.com – rockfile.co – 1fichier.com – filedown.org – katfile.com – filerio.in

 

 

 

[/su_expand]

 

 

http://shrt10.com/X0i1Su
http://shrt10.com/8K1FkpZD6
http://shrt10.com/X0SlI
http://shrt10.com/KzsU9k0u
http://shrt10.com/Wik1wK
http://shrt10.com/UJGjKt81
http://shrt10.com/cu0mD
http://shrt10.com/L5Lav
http://shrt10.com/syB91eW3Q
http://shrt10.com/h0vjIE4P

 

 

 

Download Links with premium High Speed   

 

 

[su_expand more_text=”Open Download Links” less_text=”Close all Links” height=”0″ text_color=”#4b9a3e” link_color=”#1b3fa8″ link_style=”button” more_icon=”icon: link” less_icon=”icon: unlink”]
 

 

 

 

 

nitroflare.com

 

 

 

rapidgator.net

 

 

 

uploaded.net

 

 

 

uploadgig.com

 

 

[/su_expand]
 

dx-tv.com

 

urlfree.net

Leave a Reply

Your email address will not be published. Required fields are marked *

This site uses Akismet to reduce spam. Learn how your comment data is processed.