UFC 253 Prelims 1080p Free Full Show Online

Watch UFC 253 Prelims 1080p Free Full Show Online DX-TV

 

UFC 253

 

 UFC 253

UFC 253 Prelims 1080p Free Full Show Online

 

Full Fight Card:

UFC 253 PPV Main Event:

185 lbs.: UFC Middleweight champion Israel Adesanya vs. Paulo Costa

UFC 253 PPV Main Card on ESPN+ (10 p.m. ET):

205 lbs.: Dominick Reyes vs. Jan Blachowicz
125 lbs.: Kai Kara-France vs. Brandon Royval
135 lbs.: Ketlen Vieira vs. Sijara Eubanks
145 lbs.: Hakeem Dawodu vs. Zubaira Tukhugov (catchweight of 150 pounds)

UFC 253 Prelims Card on ESPN2/ESPN+ (8 p.m. ET):

155 lbs.: Brad Riddell vs. Alex Da Silva
170 lbs.: Diego Sanchez vs. Jake Matthews
145 lbs.: Ludovit Klein vs. Shane Young
205 lbs.: Aleksa Camur vs. William Knight

UFC 253 Prelims Card on ESPN2/ESPN+ (7 p.m. ET):

265 lbs.: Juan Espino vs. Jeff Hughes
205 lbs.: Khadis Ibragimov vs. Danilo Marques

 

 

Complete name : UFC.253.Prelims.1080p.WEB-.mp4
Format : MPEG-4
Format profile : Base Media
Codec ID : isom
File size : 6.22 GiB
Duration : 2 h 31 min
Overall bit rate mode : Variable
Overall bit rate : 5 893 kb/s
Writing application : Lavf58.12.100

UFC 253

Video
ID : 2
Format : AVC
Codec ID : avc1
Codec ID/Info : Advanced
Duration : 2 h 31 min
Bit rate mode : Variable
Bit rate : 5 752 kb/s
Maximum bit rate : 8 864 kb/s
Width : 1 920 pixels
Height : 1 080 pixels
Display aspect ratio : 16:9
Frame rate mode : Variable
Frame rate : 30.000 FPS
Minimum frame rate : 29.412 FPS
Maximum frame rate : 30.303 FPS
Color space : YUV
Chroma subsampling : 4:2:0
Bit depth : 8 bits
Scan type : Progressive
Bits/(Pixel*Frame) : 0.092
Stream size : 6.07 GiB (98%)
Codec configuration box : avcC

UFC 253

Audio
ID : 3
Format : AAC LC
Format/Info : Advanced Audio
Codec ID : mp4a-40-2
Duration : 2 h 31 min
Bit rate mode : Constant
Bit rate : 132 kb/s
Channel(s) : 2 channels
Channel layout : L R
Sampling rate : 48.0 kHz
Frame rate : 46.875 FPS (1024 SPF)
Compression mode : Lossy
Stream size : 142 MiB (2%)
Default : Yes
Alternate group : 1

 

 

 

UFC 253 Prelims 1080p Free Full Show Online

 

 

 

 

Watch online

 

 

 

 

 

Server 1

 

 

 

 

watch now

 

 

 

 

Server-2

 

 

 

watch now

 

 

 

 

Server-3

 

 

 

UFC 253

 

 

 

 

Uploaded By Site DX-TV.com

 

 

 

 

Download Free Links with normal and high Speed [ more 15 hosts ]  

 

 

 

http://shrt10.com/aeyusaoL
http://shrt10.com/NRHgBFg
http://shrt10.com/Rm6lWKKn
http://shrt10.com/2pJCmj
http://shrt10.com/cpgYbi

 

 

 

 

Download Links with premium High Speed   

 

 

 

 

 

Keep2Share

 

 

 

nitroflare.com

 

 

 

rapidgator.net

 

 

 

 

 

 

 

 

dx-tv.com

 

urlfree.net

Leave a Reply

Your email address will not be published. Required fields are marked *

This site uses Akismet to reduce spam. Learn how your comment data is processed.