UFC 253 720p Prelims Full Show Online

Watch UFC 253 720p Prelims Full Show Online DX-TV

 

UFC 253

 

 UFC 253
 


 

 

UFC 253 720p Prelims Full Show Online

 

 

What time does Israel Adesanya vs. Paulo Costa start?

Coverage for UFC 253 begins on TV at 7 p.m. ET, when early prelim action gets underway. There are six prelim fights scheduled, and they will be stretched out for about three hours.

The UFC 253 main card starts at 10 p.m., but the Israel Adesanya vs. Paulo Costa headliner might not begin for a couple of more hours, perhaps as late as 12:15 a.m. ET.

UFC 253 Full Show

  • Date: Saturday, Sept. 26
  • Early prelims: 7 p.m. ET
  • Prelims: 8 p.m. ET
  • Main card: 10 p.m. ET
  • Live stream: ESPN+

 

How much does UFC 253 cost on PPV?

While the prelims for UFC 253 are free to watch on TV or via WatchESPN for cable subscribers, the event requires a pay-per-view purchase AND ESPN+ subscription to watch.

 The PPV price for UFC 253 is $64.99 for current ESPN+ subscribers, while new subscribers can pay a bundle price of $84.98 for UFC 253 and an ESPN+ annual subscription.

UFC 253 Full Show

 

Complete name : UFC.253.Prelims.720p.WEB.mp4
Format : MPEG-4
Format profile : Base Media
Codec ID : isom
File size : 3.27 GiB
Duration : 2 h 31 min
Overall bit rate mode : Variable
Overall bit rate : 3 094 kb/s
Writing application : Lavf58.12.100

UFC 253 Full Show

Video
ID : 2
Format : AVC
Duration : 2 h 31 min
Bit rate mode : Variable
Bit rate : 2 954 kb/s
Maximum bit rate : 3 159 kb/s
Width : 1 280 pixels
Height : 720 pixels
Display aspect ratio : 16:9
Frame rate mode : Variable
Frame rate : 30.000 FPS
Minimum frame rate : 29.412 FPS
Maximum frame rate : 30.303 FPS
Standard : NTSC
Color space : YUV
Chroma subsampling : 4:2:0
Bit depth : 8 bits
Scan type : Progressive
Bits/(Pixel*Frame) : 0.107
Stream size : 3.13 GiB (95%)
Color range : Limited
Color primaries : BT.709
Transfer characteristics : BT.709
Matrix coefficients : BT.709
Codec configuration box : avcC

UFC 253 Full Show

Audio
ID : 3
Format : AAC LC
Format/Info : Advanced Audio
Codec ID : mp4a-40-2
Duration : 2 h 31 min
Bit rate mode : Constant
Bit rate : 132 kb/s
Channel(s) : 2 channels
Channel layout : L R
Sampling rate : 48.0 kHz
Frame rate : 46.875 FPS (1024 SPF)
Compression mode : Lossy
Stream size : 143 MiB (4%)
Default : Yes
Alternate group : 1

 

 

 

UFC 253 720p Prelims Full Show Online

 

 

 

 

Watch online

 

 

 

 

 

Server 1

 

 

 

 

watch now

 

 

 

 

Server-2

 

 

 

watch now

 

 

 

 

Server-3

 

 

 

UFC 253

 

 

 

 

Uploaded By Site DX-TV.com

 

 

 

 

Download Free Links with normal and high Speed [ more 15 hosts ]  

 

 

 

http://shrt10.com/1P964XpK0
http://shrt10.com/bH5zvitKQ
http://shrt10.com/akLeQ7
http://shrt10.com/TCe0MVP
http://shrt10.com/eGj2JfLUH
http://shrt10.com/6wLblOhzk
http://shrt10.com/NG4FB
http://shrt10.com/k3CPlW
http://shrt10.com/r0oO3JN67

 

 

 

 

Download Links with premium High Speed   

 

 

 

 

 

nitroflare.com

 

 

 

rapidgator.net

 

 

 

uploaded.net

 

 

 

uploadgig.com

 

 

 

 

 

dx-tv.com

 

urlfree.net

Leave a Reply

Your email address will not be published. Required fields are marked *

This site uses Akismet to reduce spam. Learn how your comment data is processed.