Free UFC 253 Prelims Full Show Online

Watch UFC 253 Prelims Free Full Show Online DX-TV

 

UFC 253

 

 UFC 253
 


 

 

Free UFC 253 Prelims Full Show Online

 

 

Full Fight Card:

UFC 253 PPV Main Event:

185 lbs.: UFC Middleweight champion Israel Adesanya vs. Paulo Costa

UFC 253 PPV Main Card on ESPN+ (10 p.m. ET):

205 lbs.: Dominick Reyes vs. Jan Blachowicz
125 lbs.: Kai Kara-France vs. Brandon Royval
135 lbs.: Ketlen Vieira vs. Sijara Eubanks
145 lbs.: Hakeem Dawodu vs. Zubaira Tukhugov (catchweight of 150 pounds)

UFC 253 Prelims Card on ESPN2/ESPN+ (8 p.m. ET):

155 lbs.: Brad Riddell vs. Alex Da Silva
170 lbs.: Diego Sanchez vs. Jake Matthews
145 lbs.: Ludovit Klein vs. Shane Young
205 lbs.: Aleksa Camur vs. William Knight

UFC 253 Prelims Card on ESPN2/ESPN+ (7 p.m. ET):

265 lbs.: Juan Espino vs. Jeff Hughes
205 lbs.: Khadis Ibragimov vs. Danilo Marques

UFC 253

Complete name : UFC.253.Prelims.WEB-DL.mp4
Format : MPEG-4
Format profile : Base Media
Codec ID : isom (
File size : 1.23 GiB
Duration : 2 h 31 min
Overall bit rate mode : Variable
Overall bit rate : 1 161 kb/s
Writing application : Lavf58.12.100

UFC 253

Video
ID : 2
Format : AVC
Duration : 2 h 31 min
Bit rate mode : Variable
Bit rate : 1 021 kb/s
Maximum bit rate : 1 069 kb/s
Width : 896 pixels
Height : 504 pixels
Display aspect ratio : 16:9
Frame rate mode : Variable
Frame rate : 30.000 FPS
Minimum frame rate : 29.412 FPS
Maximum frame rate : 30.303 FPS
Standard : NTSC
Color space : YUV
Chroma subsampling : 4:2:0
Bit depth : 8 bits
Scan type : Progressive
Bits/(Pixel*Frame) : 0.075
Stream size : 1.08 GiB (88%)
Color range : Limited
Color primaries : BT.709
Transfer characteristics : BT.709
Matrix coefficients : BT.709
Codec configuration box : avcC

UFC 253

Audio
ID : 3
Format : AAC LC
Format/Info : Advanced Audio
Codec ID : mp4a-40-2
Duration : 2 h 31 min
Bit rate mode : Constant
Bit rate : 132 kb/s
Channel(s) : 2 channels
Channel layout : L R
Sampling rate : 48.0 kHz
Frame rate : 46.875 FPS (1024 SPF)
Compression mode : Lossy
Stream size : 143 MiB (11%)
Default : Yes
Alternate group : 1

 

 

 

Free UFC 253 Prelims Full Show Online

 

 

 

 

Watch online

 

 

 

 

 

Server 1

 

 

 

 

watch now

 

 

 

 

Server-2

 

 

 

watch now

 

 

 

 

Server-3

 

 

 

UFC 253

 

 

 

 

Uploaded By Site DX-TV.com

 

 

 

 

Download Free Links with normal and high Speed [ more 15 hosts ]  

 

 

 

http://shrt10.com/zEhxnW
http://shrt10.com/OjaEHGXvM
http://shrt10.com/HIq14bCN
http://shrt10.com/ar1zJeC3
http://shrt10.com/JUrIjY
http://shrt10.com/uwhbkQS
http://shrt10.com/8PzxGQP
http://shrt10.com/rWhde
http://shrt10.com/eOvtpq
http://shrt10.com/QwKVhmGaN
http://shrt10.com/MXJv5Xi
http://shrt10.com/Lg0r8ja7
http://shrt10.com/XSWkmD0

 

 

 

 

Download Links with premium High Speed   

 

 

 

 

 

 

nitroflare.com

 

 

 

rapidgator.net

 

 

 

uploaded.net

 

 

 

uploadgig.com

 

 

 

 

 

dx-tv.com

 

urlfree.net

Leave a Reply

Your email address will not be published. Required fields are marked *

This site uses Akismet to reduce spam. Learn how your comment data is processed.