Cage Warriors 116 720p Full Show Free

Watch Cage Warriors 116 720p Full Show Free DX-TV

 

Cage Warriors 116

 

 Cage Warriors 116
 


 

 

Cage Warriors 116 720p Full Show Free

 

Warriors lightweight champion Mason Jones became a simultaneous two-division champion after he finished No 1 welterweight contender.

Adam Proctor in the main event of Cage Warriors 116 to add the promotion’s welterweight title to his resume.

Proctor (12-2) towered over the Cage Warriors lightweight champion in the pre-fight face-off,

but Jones (10-0) looked unconcerned by the size difference .

as he willingly stepped into the pocket and unloaded punches on the bigger man from the opening bell.

Cage Warriors 116

Jones’ early confidence was briefly halted as Proctor stunned the Welshman with a stiff jab, but despite tasting Proctor’s power,

the lightweight champion kept the pressure on and dropped his man with a huge shot.

Jones swarmed his downed opponent and unloaded a barrage of strikes as he searched for a finish,

but Proctor hung tough and was eventually able to fight his way back to his feet.

Cage Warriors 116

But Jones would not be denied and, after dropping Proctor with another big punch,

he followed him to the fence and let fly with another flurry of fists to force referee Marc Goddard to step in ,

and stop the fight with less than 30 seconds remaining in the opening round.

Cage Warriors 116

 

Complete name : Cage.Warriors.116.720p.mp4
Format : MPEG-4
Format profile : Base Media
Codec ID : isom
File size : 1.89 GiB
Duration : 2 h 45 min
Overall bit rate mode : Variable
Overall bit rate : 1 639 kb/s
Writing application : Lavf58.12.100

Cage Warriors 116

 

Video
ID : 1
Format : AVC
Duration : 2 h 45 min
Bit rate : 1 512 kb/s
Width : 1 280 pixels
Height : 720 pixels
Display aspect ratio : 16:9
Frame rate mode : Constant
Frame rate : 30.000 FPS
Color space : YUV
Chroma subsampling : 4:2:0
Bit depth : 8 bits
Scan type : Progressive
Bits/(Pixel*Frame) : 0.055
Stream size : 1.73 GiB (92%)

Cage Warriors 116

Audio
ID : 2
Format : AAC LC
Format/Info : Advanced Audio
Codec ID : mp4a-40-2
Duration : 2 h 45 min
Bit rate mode : Variable
Bit rate : 129 kb/s
Maximum bit rate : 132 kb/s
Channel(s) : 2 channels
Channel layout : L R
Sampling rate : 48.0 kHz
Frame rate : 46.875 FPS (1024 SPF)
Compression mode : Lossy
Stream size : 152 MiB (8%)
Default : Yes
Alternate group : 1

 

 

 

Cage Warriors 116 720p Full Show Free

 

 

 

 

Watch online

 

 

 

 

 

Server 1

 

 

 

 

watch now

 

 

 

 

Server-2

 

 

 

watch now

 

 

 

 

Server-3

 

 

 

Cage Warriors 116

 

 

 

 

Uploaded By Site DX-TV.com

 

 

 

 

Download Free Links with normal and high Speed [ more 15 hosts ]  

 

 

 

 

http://shrt10.com/MaKlWV
http://shrt10.com/bJ3k1I7JX
http://shrt10.com/jYNe1
http://shrt10.com/DPb1gECV
http://shrt10.com/502s0GOf
http://shrt10.com/6s7PB
http://shrt10.com/bOfEjw
http://shrt10.com/yriGC
http://shrt10.com/7eh7LrpSD
http://shrt10.com/iEeG8
http://shrt10.com/PpCQqsy
http://shrt10.com/XLlWud1z
http://shrt10.com/SSk6D

 

 

 

Download Links with premium High Speed   

 

 

 

 

 

uploaded.net

 

 

 

nitroflare.com

 

 

 

rapidgator.net

 

 

 

uploadgig.com

 

 

 

 

 

dx-tv.com

 

urlfree.net

Leave a Reply

Your email address will not be published. Required fields are marked *

This site uses Akismet to reduce spam. Learn how your comment data is processed.