TJPW 8th Tokyo Princess Cup Day 3 2021 Online Free

TJPW 8th Tokyo Princess Cup Day 3 2021 07 24 Online Free Replay DX-TV

TJPW 8th Tokyo Princess Cup

TJPW 8th Tokyo Princess Cup

 

 

 

Download Links with premium High Speed


 

Dopapk

 

 

Show Links

 

http://shrt10.com/BgPW1A
http://shrt10.com/9edhU
http://shrt10.com/XgpuW1Q3

 

[collapse]

 

 

Nitroflare

 

 

Show Links

 

http://shrt10.com/sTEudCF
http://shrt10.com/rFZjDu
http://shrt10.com/24gl1enB

 

[collapse]

 

 

Rapidgator

 

 

Show Links

 

http://shrt10.com/wCiF3
http://shrt10.com/xnsiw
http://shrt10.com/cxjo7MM4

 

[collapse]

 

 

Uploaded

 

 

Show Links

 

http://shrt10.com/3Lc1w
http://shrt10.com/enSK8

 

[collapse]

 

 

Watch online

 

Server 1

 

 

 

 

TJPW 8th Tokyo Princess Cup

 

 

 

 

Server-2

 

 

 

 

watch now

 

 

 

|Server-3

 

 

 

 

watch now

 

 

Uploaded By Site DX-TV.com

 

 

Show Info This Show

TJPW 8th Tokyo Princess Cup

 

Complete name : Tokyo.Joshi.Pro.2021.07.24.8th.Tokyo.Princess.Cup.Day.3.1080p.WEB.h264-LATE.mkv
Format : Matroska
Format version : Version 4
File size : 5.41 GiB
Duration : 1 h 56 min
Overall bit rate mode : Variable
Overall bit rate : 6 641 kb/s
Video
ID : 1
Format : AVC
Format/Info : Advanced Video
Duration : 1 h 56 min
Bit rate mode : Variable
Bit rate : 6 257 kb/s
Maximum bit rate : 18.0 Mb/s
Width : 1 920 pixels
Height : 1 080 pixels
Display aspect ratio : 16:9
Frame rate mode : Constant
Frame rate : 29.970 (30000/1001) FPS
Color space : YUV
Chroma subsampling : 4:2:0
Bit depth : 8 bits
Scan type : Progressive
Bits/(Pixel*Frame) : 0.101
Stream size : 5.10 GiB (94%)
Default : Yes
Forced : No
Color range : Limited
Color primaries : BT.709
Transfer characteristics : BT.709
Matrix coefficients : BT.709

TJPW 8th Tokyo Princess Cup

Audio
ID : 2
Format : AAC LC
Codec ID : A_AAC-2
Duration : 1 h 56 min
Bit rate : 384 kb/s
Channel(s) : 2 channels
Channel layout : L R
Sampling rate : 48.0 kHz
Frame rate : 46.875 FPS (1024 SPF)
Compression mode : Lossy
Delay relative to video : 4 ms
Stream size : 318 MiB (6%)
Default : Yes
Forced : No

Complete name : Tokyo.Joshi.Pro.2021.07.24.8th.Tokyo.Princess.Cup.Day.3.WEB.h264-LATE.mkv
Format : Matroska
Format version : Version 4
File size : 1 019 MiB
Duration : 1 h 56 min
Overall bit rate mode : Variable
Overall bit rate : 1 221 kb/s

TJPW 8th Tokyo Princess Cup

Video
ID : 1
Format : AVC
Format/Info : Advanced Video
Duration : 1 h 56 min
Bit rate mode : Variable
Bit rate : 1 093 kb/s
Maximum bit rate : 4 000 kb/s
Width : 960 pixels
Height : 540 pixels
Display aspect ratio : 16:9
Frame rate mode : Constant
Frame rate : 29.970 (30000/1001) FPS
Color space : YUV
Chroma subsampling : 4:2:0
Bit depth : 8 bits
Scan type : Progressive
Bits/(Pixel*Frame) : 0.070
Stream size : 913 MiB (90%)
Default : Yes
Forced : No
Color range : Limited
Color primaries : BT.709
Transfer characteristics : BT.709
Matrix coefficients : BT.709

Audio
ID : 2
Format : AAC LC
Codec ID : A_AAC-2
Duration : 1 h 56 min
Bit rate : 125 kb/s
Channel(s) : 2 channels
Channel layout : L R
Sampling rate : 48.0 kHz
Frame rate : 46.875 FPS (1024 SPF)
Compression mode : Lossy
Delay relative to video : 4 ms
Stream size : 105 MiB (10%)
Default : Yes
Forced : No

TJPW 8th Tokyo Princess Cup

Complete name : Tokyo.Joshi.Pro.2021.07.24.8th.Tokyo.Princess.Cup.Day.3.720p.WEB.h264-LATE.mkv
Format : Matroska
Format version : Version 4
File size : 2.22 GiB
Duration : 1 h 56 min
Overall bit rate mode : Variable
Overall bit rate : 2 718 kb/s

Video
ID : 1
Format : AVC
Format/Info : Advanced Video
Duration : 1 h 56 min
Bit rate mode : Variable
Bit rate : 2 526 kb/s
Maximum bit rate : 8 000 kb/s
Width : 1 280 pixels
Height : 720 pixels
Display aspect ratio : 16:9
Frame rate mode : Constant
Frame rate : 29.970 (30000/1001) FPS
Color space : YUV
Chroma subsampling : 4:2:0
Bit depth : 8 bits
Scan type : Progressive
Bits/(Pixel*Frame) : 0.091
Stream size : 2.06 GiB (93%)
Default : Yes
Forced : No
Color range : Limited
Color primaries : BT.709
Transfer characteristics : BT.709
Matrix coefficients : BT.709

TJPW 8th Tokyo Princess Cup

Audio
ID : 2
Format : AAC LC
Format/Info : Advanced Audio
Codec ID : A_AAC-2
Duration : 1 h 56 min
Bit rate : 192 kb/s
Channel(s) : 2 channels
Channel layout : L R
Sampling rate : 48.0 kHz
Frame rate : 46.875 FPS (1024 SPF)
Compression mode : Lossy
Delay relative to video : 4 ms
Stream size : 158 MiB (7%)
Default : Yes
Forced : No

TJPW 8th Tokyo Princess Cup

Complete name : Tokyo.Joshi.Pro.2021.07.24.8th.Tokyo.Princess.Cup.Day.3.1080p.WEB.h264-LATE.mkv
Format : Matroska
Format version : Version 4
File size : 5.41 GiB
Duration : 1 h 56 min
Overall bit rate mode : Variable
Overall bit rate : 6 641 kb/s
Video
ID : 1
Format : AVC
Format/Info : Advanced Video
Duration : 1 h 56 min
Bit rate mode : Variable
Bit rate : 6 257 kb/s
Maximum bit rate : 18.0 Mb/s
Width : 1 920 pixels
Height : 1 080 pixels
Display aspect ratio : 16:9
Frame rate mode : Constant
Frame rate : 29.970 (30000/1001) FPS
Color space : YUV
Chroma subsampling : 4:2:0
Bit depth : 8 bits
Scan type : Progressive
Bits/(Pixel*Frame) : 0.101
Stream size : 5.10 GiB (94%)
Default : Yes
Forced : No
Color range : Limited
Color primaries : BT.709
Transfer characteristics : BT.709
Matrix coefficients : BT.709

TJPW 8th Tokyo Princess Cup

Audio
ID : 2
Format : AAC LC
Codec ID : A_AAC-2
Duration : 1 h 56 min
Bit rate : 384 kb/s
Channel(s) : 2 channels
Channel layout : L R
Sampling rate : 48.0 kHz
Frame rate : 46.875 FPS (1024 SPF)
Compression mode : Lossy
Delay relative to video : 4 ms
Stream size : 318 MiB (6%)
Default : Yes
Forced : No

Complete name : Tokyo.Joshi.Pro.2021.07.24.8th.Tokyo.Princess.Cup.Day.3.WEB.h264-LATE.mkv
Format : Matroska
Format version : Version 4
File size : 1 019 MiB
Duration : 1 h 56 min
Overall bit rate mode : Variable
Overall bit rate : 1 221 kb/s

TJPW 8th Tokyo Princess Cup

Video
ID : 1
Format : AVC
Format/Info : Advanced Video
Duration : 1 h 56 min
Bit rate mode : Variable
Bit rate : 1 093 kb/s
Maximum bit rate : 4 000 kb/s
Width : 960 pixels
Height : 540 pixels
Display aspect ratio : 16:9
Frame rate mode : Constant
Frame rate : 29.970 (30000/1001) FPS
Color space : YUV
Chroma subsampling : 4:2:0
Bit depth : 8 bits
Scan type : Progressive
Bits/(Pixel*Frame) : 0.070
Stream size : 913 MiB (90%)
Default : Yes
Forced : No
Color range : Limited
Color primaries : BT.709
Transfer characteristics : BT.709
Matrix coefficients : BT.709

Audio
ID : 2
Format : AAC LC
Codec ID : A_AAC-2
Duration : 1 h 56 min
Bit rate : 125 kb/s
Channel(s) : 2 channels
Channel layout : L R
Sampling rate : 48.0 kHz
Frame rate : 46.875 FPS (1024 SPF)
Compression mode : Lossy
Delay relative to video : 4 ms
Stream size : 105 MiB (10%)
Default : Yes
Forced : No

TJPW 8th Tokyo Princess Cup

Complete name : Tokyo.Joshi.Pro.2021.07.24.8th.Tokyo.Princess.Cup.Day.3.720p.WEB.h264-LATE.mkv
Format : Matroska
Format version : Version 4
File size : 2.22 GiB
Duration : 1 h 56 min
Overall bit rate mode : Variable
Overall bit rate : 2 718 kb/s

Video
ID : 1
Format : AVC
Format/Info : Advanced Video
Duration : 1 h 56 min
Bit rate mode : Variable
Bit rate : 2 526 kb/s
Maximum bit rate : 8 000 kb/s
Width : 1 280 pixels
Height : 720 pixels
Display aspect ratio : 16:9
Frame rate mode : Constant
Frame rate : 29.970 (30000/1001) FPS
Color space : YUV
Chroma subsampling : 4:2:0
Bit depth : 8 bits
Scan type : Progressive
Bits/(Pixel*Frame) : 0.091
Stream size : 2.06 GiB (93%)
Default : Yes
Forced : No
Color range : Limited
Color primaries : BT.709
Transfer characteristics : BT.709
Matrix coefficients : BT.709

TJPW 8th Tokyo Princess Cup

Audio
ID : 2
Format : AAC LC
Format/Info : Advanced Audio
Codec ID : A_AAC-2
Duration : 1 h 56 min
Bit rate : 192 kb/s
Channel(s) : 2 channels
Channel layout : L R
Sampling rate : 48.0 kHz
Frame rate : 46.875 FPS (1024 SPF)
Compression mode : Lossy
Delay relative to video : 4 ms
Stream size : 158 MiB (7%)
Default : Yes
Forced : No

TJPW 8th Tokyo Princess Cup

Complete name : Tokyo.Joshi.Pro.2021.07.24.8th.Tokyo.Princess.Cup.Day.3.1080p.WEB.h264-LATE.mkv
Format : Matroska
Format version : Version 4
File size : 5.41 GiB
Duration : 1 h 56 min
Overall bit rate mode : Variable
Overall bit rate : 6 641 kb/s
Video
ID : 1
Format : AVC
Format/Info : Advanced Video
Duration : 1 h 56 min
Bit rate mode : Variable
Bit rate : 6 257 kb/s
Maximum bit rate : 18.0 Mb/s
Width : 1 920 pixels
Height : 1 080 pixels
Display aspect ratio : 16:9
Frame rate mode : Constant
Frame rate : 29.970 (30000/1001) FPS
Color space : YUV
Chroma subsampling : 4:2:0
Bit depth : 8 bits
Scan type : Progressive
Bits/(Pixel*Frame) : 0.101
Stream size : 5.10 GiB (94%)
Default : Yes
Forced : No
Color range : Limited
Color primaries : BT.709
Transfer characteristics : BT.709
Matrix coefficients : BT.709

TJPW 8th Tokyo Princess Cup

Audio
ID : 2
Format : AAC LC
Codec ID : A_AAC-2
Duration : 1 h 56 min
Bit rate : 384 kb/s
Channel(s) : 2 channels
Channel layout : L R
Sampling rate : 48.0 kHz
Frame rate : 46.875 FPS (1024 SPF)
Compression mode : Lossy
Delay relative to video : 4 ms
Stream size : 318 MiB (6%)
Default : Yes
Forced : No

Complete name : Tokyo.Joshi.Pro.2021.07.24.8th.Tokyo.Princess.Cup.Day.3.WEB.h264-LATE.mkv
Format : Matroska
Format version : Version 4
File size : 1 019 MiB
Duration : 1 h 56 min
Overall bit rate mode : Variable
Overall bit rate : 1 221 kb/s

TJPW 8th Tokyo Princess Cup

Video
ID : 1
Format : AVC
Format/Info : Advanced Video
Duration : 1 h 56 min
Bit rate mode : Variable
Bit rate : 1 093 kb/s
Maximum bit rate : 4 000 kb/s
Width : 960 pixels
Height : 540 pixels
Display aspect ratio : 16:9
Frame rate mode : Constant
Frame rate : 29.970 (30000/1001) FPS
Color space : YUV
Chroma subsampling : 4:2:0
Bit depth : 8 bits
Scan type : Progressive
Bits/(Pixel*Frame) : 0.070
Stream size : 913 MiB (90%)
Default : Yes
Forced : No
Color range : Limited
Color primaries : BT.709
Transfer characteristics : BT.709
Matrix coefficients : BT.709

Audio
ID : 2
Format : AAC LC
Codec ID : A_AAC-2
Duration : 1 h 56 min
Bit rate : 125 kb/s
Channel(s) : 2 channels
Channel layout : L R
Sampling rate : 48.0 kHz
Frame rate : 46.875 FPS (1024 SPF)
Compression mode : Lossy
Delay relative to video : 4 ms
Stream size : 105 MiB (10%)
Default : Yes
Forced : No

TJPW 8th Tokyo Princess Cup

Complete name : Tokyo.Joshi.Pro.2021.07.24.8th.Tokyo.Princess.Cup.Day.3.720p.WEB.h264-LATE.mkv
Format : Matroska
Format version : Version 4
File size : 2.22 GiB
Duration : 1 h 56 min
Overall bit rate mode : Variable
Overall bit rate : 2 718 kb/s

Video
ID : 1
Format : AVC
Format/Info : Advanced Video
Duration : 1 h 56 min
Bit rate mode : Variable
Bit rate : 2 526 kb/s
Maximum bit rate : 8 000 kb/s
Width : 1 280 pixels
Height : 720 pixels
Display aspect ratio : 16:9
Frame rate mode : Constant
Frame rate : 29.970 (30000/1001) FPS
Color space : YUV
Chroma subsampling : 4:2:0
Bit depth : 8 bits
Scan type : Progressive
Bits/(Pixel*Frame) : 0.091
Stream size : 2.06 GiB (93%)
Default : Yes
Forced : No
Color range : Limited
Color primaries : BT.709
Transfer characteristics : BT.709
Matrix coefficients : BT.709

TJPW 8th Tokyo Princess Cup

Audio
ID : 2
Format : AAC LC
Format/Info : Advanced Audio
Codec ID : A_AAC-2
Duration : 1 h 56 min
Bit rate : 192 kb/s
Channel(s) : 2 channels
Channel layout : L R
Sampling rate : 48.0 kHz
Frame rate : 46.875 FPS (1024 SPF)
Compression mode : Lossy
Delay relative to video : 4 ms
Stream size : 158 MiB (7%)
Default : Yes
Forced : No

TJPW 8th Tokyo Princess Cup

Complete name : Tokyo.Joshi.Pro.2021.07.24.8th.Tokyo.Princess.Cup.Day.3.1080p.WEB.h264-LATE.mkv
Format : Matroska
Format version : Version 4
File size : 5.41 GiB
Duration : 1 h 56 min
Overall bit rate mode : Variable
Overall bit rate : 6 641 kb/s
Video
ID : 1
Format : AVC
Format/Info : Advanced Video
Duration : 1 h 56 min
Bit rate mode : Variable
Bit rate : 6 257 kb/s
Maximum bit rate : 18.0 Mb/s
Width : 1 920 pixels
Height : 1 080 pixels
Display aspect ratio : 16:9
Frame rate mode : Constant
Frame rate : 29.970 (30000/1001) FPS
Color space : YUV
Chroma subsampling : 4:2:0
Bit depth : 8 bits
Scan type : Progressive
Bits/(Pixel*Frame) : 0.101
Stream size : 5.10 GiB (94%)
Default : Yes
Forced : No
Color range : Limited
Color primaries : BT.709
Transfer characteristics : BT.709
Matrix coefficients : BT.709

TJPW 8th Tokyo Princess Cup

Audio
ID : 2
Format : AAC LC
Codec ID : A_AAC-2
Duration : 1 h 56 min
Bit rate : 384 kb/s
Channel(s) : 2 channels
Channel layout : L R
Sampling rate : 48.0 kHz
Frame rate : 46.875 FPS (1024 SPF)
Compression mode : Lossy
Delay relative to video : 4 ms
Stream size : 318 MiB (6%)
Default : Yes
Forced : No

Complete name : Tokyo.Joshi.Pro.2021.07.24.8th.Tokyo.Princess.Cup.Day.3.WEB.h264-LATE.mkv
Format : Matroska
Format version : Version 4
File size : 1 019 MiB
Duration : 1 h 56 min
Overall bit rate mode : Variable
Overall bit rate : 1 221 kb/s

TJPW 8th Tokyo Princess Cup

Video
ID : 1
Format : AVC
Format/Info : Advanced Video
Duration : 1 h 56 min
Bit rate mode : Variable
Bit rate : 1 093 kb/s
Maximum bit rate : 4 000 kb/s
Width : 960 pixels
Height : 540 pixels
Display aspect ratio : 16:9
Frame rate mode : Constant
Frame rate : 29.970 (30000/1001) FPS
Color space : YUV
Chroma subsampling : 4:2:0
Bit depth : 8 bits
Scan type : Progressive
Bits/(Pixel*Frame) : 0.070
Stream size : 913 MiB (90%)
Default : Yes
Forced : No
Color range : Limited
Color primaries : BT.709
Transfer characteristics : BT.709
Matrix coefficients : BT.709

Audio
ID : 2
Format : AAC LC
Codec ID : A_AAC-2
Duration : 1 h 56 min
Bit rate : 125 kb/s
Channel(s) : 2 channels
Channel layout : L R
Sampling rate : 48.0 kHz
Frame rate : 46.875 FPS (1024 SPF)
Compression mode : Lossy
Delay relative to video : 4 ms
Stream size : 105 MiB (10%)
Default : Yes
Forced : No

TJPW 8th Tokyo Princess Cup

Complete name : Tokyo.Joshi.Pro.2021.07.24.8th.Tokyo.Princess.Cup.Day.3.720p.WEB.h264-LATE.mkv
Format : Matroska
Format version : Version 4
File size : 2.22 GiB
Duration : 1 h 56 min
Overall bit rate mode : Variable
Overall bit rate : 2 718 kb/s

Video
ID : 1
Format : AVC
Format/Info : Advanced Video
Duration : 1 h 56 min
Bit rate mode : Variable
Bit rate : 2 526 kb/s
Maximum bit rate : 8 000 kb/s
Width : 1 280 pixels
Height : 720 pixels
Display aspect ratio : 16:9
Frame rate mode : Constant
Frame rate : 29.970 (30000/1001) FPS
Color space : YUV
Chroma subsampling : 4:2:0
Bit depth : 8 bits
Scan type : Progressive
Bits/(Pixel*Frame) : 0.091
Stream size : 2.06 GiB (93%)
Default : Yes
Forced : No
Color range : Limited
Color primaries : BT.709
Transfer characteristics : BT.709
Matrix coefficients : BT.709

TJPW 8th Tokyo Princess Cup

Audio
ID : 2
Format : AAC LC
Format/Info : Advanced Audio
Codec ID : A_AAC-2
Duration : 1 h 56 min
Bit rate : 192 kb/s
Channel(s) : 2 channels
Channel layout : L R
Sampling rate : 48.0 kHz
Frame rate : 46.875 FPS (1024 SPF)
Compression mode : Lossy
Delay relative to video : 4 ms
Stream size : 158 MiB (7%)
Default : Yes
Forced : No

TJPW 8th Tokyo Princess Cup

Complete name : Tokyo.Joshi.Pro.2021.07.24.8th.Tokyo.Princess.Cup.Day.3.1080p.WEB.h264-LATE.mkv
Format : Matroska
Format version : Version 4
File size : 5.41 GiB
Duration : 1 h 56 min
Overall bit rate mode : Variable
Overall bit rate : 6 641 kb/s
Video
ID : 1
Format : AVC
Format/Info : Advanced Video
Duration : 1 h 56 min
Bit rate mode : Variable
Bit rate : 6 257 kb/s
Maximum bit rate : 18.0 Mb/s
Width : 1 920 pixels
Height : 1 080 pixels
Display aspect ratio : 16:9
Frame rate mode : Constant
Frame rate : 29.970 (30000/1001) FPS
Color space : YUV
Chroma subsampling : 4:2:0
Bit depth : 8 bits
Scan type : Progressive
Bits/(Pixel*Frame) : 0.101
Stream size : 5.10 GiB (94%)
Default : Yes
Forced : No
Color range : Limited
Color primaries : BT.709
Transfer characteristics : BT.709
Matrix coefficients : BT.709

TJPW 8th Tokyo Princess Cup

Audio
ID : 2
Format : AAC LC
Codec ID : A_AAC-2
Duration : 1 h 56 min
Bit rate : 384 kb/s
Channel(s) : 2 channels
Channel layout : L R
Sampling rate : 48.0 kHz
Frame rate : 46.875 FPS (1024 SPF)
Compression mode : Lossy
Delay relative to video : 4 ms
Stream size : 318 MiB (6%)
Default : Yes
Forced : No

Complete name : Tokyo.Joshi.Pro.2021.07.24.8th.Tokyo.Princess.Cup.Day.3.WEB.h264-LATE.mkv
Format : Matroska
Format version : Version 4
File size : 1 019 MiB
Duration : 1 h 56 min
Overall bit rate mode : Variable
Overall bit rate : 1 221 kb/s

TJPW 8th Tokyo Princess Cup

Video
ID : 1
Format : AVC
Format/Info : Advanced Video
Duration : 1 h 56 min
Bit rate mode : Variable
Bit rate : 1 093 kb/s
Maximum bit rate : 4 000 kb/s
Width : 960 pixels
Height : 540 pixels
Display aspect ratio : 16:9
Frame rate mode : Constant
Frame rate : 29.970 (30000/1001) FPS
Color space : YUV
Chroma subsampling : 4:2:0
Bit depth : 8 bits
Scan type : Progressive
Bits/(Pixel*Frame) : 0.070
Stream size : 913 MiB (90%)
Default : Yes
Forced : No
Color range : Limited
Color primaries : BT.709
Transfer characteristics : BT.709
Matrix coefficients : BT.709

Audio
ID : 2
Format : AAC LC
Codec ID : A_AAC-2
Duration : 1 h 56 min
Bit rate : 125 kb/s
Channel(s) : 2 channels
Channel layout : L R
Sampling rate : 48.0 kHz
Frame rate : 46.875 FPS (1024 SPF)
Compression mode : Lossy
Delay relative to video : 4 ms
Stream size : 105 MiB (10%)
Default : Yes
Forced : No

TJPW 8th Tokyo Princess Cup

Complete name : Tokyo.Joshi.Pro.2021.07.24.8th.Tokyo.Princess.Cup.Day.3.720p.WEB.h264-LATE.mkv
Format : Matroska
Format version : Version 4
File size : 2.22 GiB
Duration : 1 h 56 min
Overall bit rate mode : Variable
Overall bit rate : 2 718 kb/s

Video
ID : 1
Format : AVC
Format/Info : Advanced Video
Duration : 1 h 56 min
Bit rate mode : Variable
Bit rate : 2 526 kb/s
Maximum bit rate : 8 000 kb/s
Width : 1 280 pixels
Height : 720 pixels
Display aspect ratio : 16:9
Frame rate mode : Constant
Frame rate : 29.970 (30000/1001) FPS
Color space : YUV
Chroma subsampling : 4:2:0
Bit depth : 8 bits
Scan type : Progressive
Bits/(Pixel*Frame) : 0.091
Stream size : 2.06 GiB (93%)
Default : Yes
Forced : No
Color range : Limited
Color primaries : BT.709
Transfer characteristics : BT.709
Matrix coefficients : BT.709

TJPW 8th Tokyo Princess Cup

Audio
ID : 2
Format : AAC LC
Format/Info : Advanced Audio
Codec ID : A_AAC-2
Duration : 1 h 56 min
Bit rate : 192 kb/s
Channel(s) : 2 channels
Channel layout : L R
Sampling rate : 48.0 kHz
Frame rate : 46.875 FPS (1024 SPF)
Compression mode : Lossy
Delay relative to video : 4 ms
Stream size : 158 MiB (7%)
Default : Yes
Forced : No

TJPW 8th Tokyo Princess Cup

Complete name : Tokyo.Joshi.Pro.2021.07.24.8th.Tokyo.Princess.Cup.Day.3.1080p.WEB.h264-LATE.mkv
Format : Matroska
Format version : Version 4
File size : 5.41 GiB
Duration : 1 h 56 min
Overall bit rate mode : Variable
Overall bit rate : 6 641 kb/s
Video
ID : 1
Format : AVC
Format/Info : Advanced Video
Duration : 1 h 56 min
Bit rate mode : Variable
Bit rate : 6 257 kb/s
Maximum bit rate : 18.0 Mb/s
Width : 1 920 pixels
Height : 1 080 pixels
Display aspect ratio : 16:9
Frame rate mode : Constant
Frame rate : 29.970 (30000/1001) FPS
Color space : YUV
Chroma subsampling : 4:2:0
Bit depth : 8 bits
Scan type : Progressive
Bits/(Pixel*Frame) : 0.101
Stream size : 5.10 GiB (94%)
Default : Yes
Forced : No
Color range : Limited
Color primaries : BT.709
Transfer characteristics : BT.709
Matrix coefficients : BT.709

TJPW 8th Tokyo Princess Cup

Audio
ID : 2
Format : AAC LC
Codec ID : A_AAC-2
Duration : 1 h 56 min
Bit rate : 384 kb/s
Channel(s) : 2 channels
Channel layout : L R
Sampling rate : 48.0 kHz
Frame rate : 46.875 FPS (1024 SPF)
Compression mode : Lossy
Delay relative to video : 4 ms
Stream size : 318 MiB (6%)
Default : Yes
Forced : No

Complete name : Tokyo.Joshi.Pro.2021.07.24.8th.Tokyo.Princess.Cup.Day.3.WEB.h264-LATE.mkv
Format : Matroska
Format version : Version 4
File size : 1 019 MiB
Duration : 1 h 56 min
Overall bit rate mode : Variable
Overall bit rate : 1 221 kb/s

TJPW 8th Tokyo Princess Cup

Video
ID : 1
Format : AVC
Format/Info : Advanced Video
Duration : 1 h 56 min
Bit rate mode : Variable
Bit rate : 1 093 kb/s
Maximum bit rate : 4 000 kb/s
Width : 960 pixels
Height : 540 pixels
Display aspect ratio : 16:9
Frame rate mode : Constant
Frame rate : 29.970 (30000/1001) FPS
Color space : YUV
Chroma subsampling : 4:2:0
Bit depth : 8 bits
Scan type : Progressive
Bits/(Pixel*Frame) : 0.070
Stream size : 913 MiB (90%)
Default : Yes
Forced : No
Color range : Limited
Color primaries : BT.709
Transfer characteristics : BT.709
Matrix coefficients : BT.709

Audio
ID : 2
Format : AAC LC
Codec ID : A_AAC-2
Duration : 1 h 56 min
Bit rate : 125 kb/s
Channel(s) : 2 channels
Channel layout : L R
Sampling rate : 48.0 kHz
Frame rate : 46.875 FPS (1024 SPF)
Compression mode : Lossy
Delay relative to video : 4 ms
Stream size : 105 MiB (10%)
Default : Yes
Forced : No

TJPW 8th Tokyo Princess Cup

Complete name : Tokyo.Joshi.Pro.2021.07.24.8th.Tokyo.Princess.Cup.Day.3.720p.WEB.h264-LATE.mkv
Format : Matroska
Format version : Version 4
File size : 2.22 GiB
Duration : 1 h 56 min
Overall bit rate mode : Variable
Overall bit rate : 2 718 kb/s

Video
ID : 1
Format : AVC
Format/Info : Advanced Video
Duration : 1 h 56 min
Bit rate mode : Variable
Bit rate : 2 526 kb/s
Maximum bit rate : 8 000 kb/s
Width : 1 280 pixels
Height : 720 pixels
Display aspect ratio : 16:9
Frame rate mode : Constant
Frame rate : 29.970 (30000/1001) FPS
Color space : YUV
Chroma subsampling : 4:2:0
Bit depth : 8 bits
Scan type : Progressive
Bits/(Pixel*Frame) : 0.091
Stream size : 2.06 GiB (93%)
Default : Yes
Forced : No
Color range : Limited
Color primaries : BT.709
Transfer characteristics : BT.709
Matrix coefficients : BT.709

TJPW 8th Tokyo Princess Cup

Audio
ID : 2
Format : AAC LC
Format/Info : Advanced Audio
Codec ID : A_AAC-2
Duration : 1 h 56 min
Bit rate : 192 kb/s
Channel(s) : 2 channels
Channel layout : L R
Sampling rate : 48.0 kHz
Frame rate : 46.875 FPS (1024 SPF)
Compression mode : Lossy
Delay relative to video : 4 ms
Stream size : 158 MiB (7%)
Default : Yes
Forced : No

TJPW 8th Tokyo Princess Cup

Complete name : Tokyo.Joshi.Pro.2021.07.24.8th.Tokyo.Princess.Cup.Day.3.1080p.WEB.h264-LATE.mkv
Format : Matroska
Format version : Version 4
File size : 5.41 GiB
Duration : 1 h 56 min
Overall bit rate mode : Variable
Overall bit rate : 6 641 kb/s
Video
ID : 1
Format : AVC
Format/Info : Advanced Video
Duration : 1 h 56 min
Bit rate mode : Variable
Bit rate : 6 257 kb/s
Maximum bit rate : 18.0 Mb/s
Width : 1 920 pixels
Height : 1 080 pixels
Display aspect ratio : 16:9
Frame rate mode : Constant
Frame rate : 29.970 (30000/1001) FPS
Color space : YUV
Chroma subsampling : 4:2:0
Bit depth : 8 bits
Scan type : Progressive
Bits/(Pixel*Frame) : 0.101
Stream size : 5.10 GiB (94%)
Default : Yes
Forced : No
Color range : Limited
Color primaries : BT.709
Transfer characteristics : BT.709
Matrix coefficients : BT.709

TJPW 8th Tokyo Princess Cup

Audio
ID : 2
Format : AAC LC
Codec ID : A_AAC-2
Duration : 1 h 56 min
Bit rate : 384 kb/s
Channel(s) : 2 channels
Channel layout : L R
Sampling rate : 48.0 kHz
Frame rate : 46.875 FPS (1024 SPF)
Compression mode : Lossy
Delay relative to video : 4 ms
Stream size : 318 MiB (6%)
Default : Yes
Forced : No

Complete name : Tokyo.Joshi.Pro.2021.07.24.8th.Tokyo.Princess.Cup.Day.3.WEB.h264-LATE.mkv
Format : Matroska
Format version : Version 4
File size : 1 019 MiB
Duration : 1 h 56 min
Overall bit rate mode : Variable
Overall bit rate : 1 221 kb/s

TJPW 8th Tokyo Princess Cup

Video
ID : 1
Format : AVC
Format/Info : Advanced Video
Duration : 1 h 56 min
Bit rate mode : Variable
Bit rate : 1 093 kb/s
Maximum bit rate : 4 000 kb/s
Width : 960 pixels
Height : 540 pixels
Display aspect ratio : 16:9
Frame rate mode : Constant
Frame rate : 29.970 (30000/1001) FPS
Color space : YUV
Chroma subsampling : 4:2:0
Bit depth : 8 bits
Scan type : Progressive
Bits/(Pixel*Frame) : 0.070
Stream size : 913 MiB (90%)
Default : Yes
Forced : No
Color range : Limited
Color primaries : BT.709
Transfer characteristics : BT.709
Matrix coefficients : BT.709

Audio
ID : 2
Format : AAC LC
Codec ID : A_AAC-2
Duration : 1 h 56 min
Bit rate : 125 kb/s
Channel(s) : 2 channels
Channel layout : L R
Sampling rate : 48.0 kHz
Frame rate : 46.875 FPS (1024 SPF)
Compression mode : Lossy
Delay relative to video : 4 ms
Stream size : 105 MiB (10%)
Default : Yes
Forced : No

TJPW 8th Tokyo Princess Cup

Complete name : Tokyo.Joshi.Pro.2021.07.24.8th.Tokyo.Princess.Cup.Day.3.720p.WEB.h264-LATE.mkv
Format : Matroska
Format version : Version 4
File size : 2.22 GiB
Duration : 1 h 56 min
Overall bit rate mode : Variable
Overall bit rate : 2 718 kb/s

Video
ID : 1
Format : AVC
Format/Info : Advanced Video
Duration : 1 h 56 min
Bit rate mode : Variable
Bit rate : 2 526 kb/s
Maximum bit rate : 8 000 kb/s
Width : 1 280 pixels
Height : 720 pixels
Display aspect ratio : 16:9
Frame rate mode : Constant
Frame rate : 29.970 (30000/1001) FPS
Color space : YUV
Chroma subsampling : 4:2:0
Bit depth : 8 bits
Scan type : Progressive
Bits/(Pixel*Frame) : 0.091
Stream size : 2.06 GiB (93%)
Default : Yes
Forced : No
Color range : Limited
Color primaries : BT.709
Transfer characteristics : BT.709
Matrix coefficients : BT.709

TJPW 8th Tokyo Princess Cup

Audio
ID : 2
Format : AAC LC
Format/Info : Advanced Audio
Codec ID : A_AAC-2
Duration : 1 h 56 min
Bit rate : 192 kb/s
Channel(s) : 2 channels
Channel layout : L R
Sampling rate : 48.0 kHz
Frame rate : 46.875 FPS (1024 SPF)
Compression mode : Lossy
Delay relative to video : 4 ms
Stream size : 158 MiB (7%)
Default : Yes
Forced : No

TJPW 8th Tokyo Princess Cup

 

[collapse]

 

 

https://dx-tv.com/

You May Also Like

Leave a Reply

Your email address will not be published. Required fields are marked *

This site uses Akismet to reduce spam. Learn how your comment data is processed.