TJPW 8th Tokyo Princess Cup 2021 Day 2 Online Free

TJPW 8th Tokyo Princess Cup 2021 07 23 Day 2 Online Free Replay DX-TV

Contents show

TJPW 8th Tokyo Princess Cup 2021

 TJPW 8th Tokyo Princess Cup 2021

 

 

 

Download Links with premium High Speed


 

Dopapk

 

 

Show Links

 

http://shrt10.com/P9cXZ4QYE
http://shrt10.com/u3Xg5b
http://shrt10.com/1J905XE4

 

[collapse]

 

 

Nitroflare

 

 

Show Links

 

http://shrt10.com/PktLM
http://shrt10.com/6Ljog9
http://shrt10.com/zW0UK

 

[collapse]

 

 

Rapidgator

 

 

Show Links

 

http://shrt10.com/JTk1jD650
http://shrt10.com/FLOcb
http://shrt10.com/TeyTsd4Su

 

[collapse]

 

 

Uploaded

 

 

Show Links

 

http://shrt10.com/ruNhLv9
http://shrt10.com/4fUl5

 

[collapse]

 

 

Watch online

 

Server 1

 

 

 

 

TJPW 8th Tokyo Princess Cup 2021

 

 

 

 

Server-2

 

 

 

 

watch now

 

 

 

|Server-3

 

 

 

 

watch now

 

 

Uploaded By Site DX-TV.com

 

 

Show Info This Show

 

TJPW 8th Tokyo Princess Cup 2021

Complete name : Tokyo.Joshi.Pro.2021.07.23.8th.Tokyo.Princess.Cup.Day.2.720p.WEB.h264-LATE.mkv
Format : Matroska
Format version : Version 4
File size : 2.26 GiB
Duration : 1 h 55 min
Overall bit rate mode : Variable
Overall bit rate : 2 807 kb/s

Video
ID : 1
Format : AVC
Format/Info : Advanced Video
Duration : 1 h 55 min
Bit rate mode : Variable
Bit rate : 2 615 kb/s
Maximum bit rate : 8 000 kb/s
Width : 1 280 pixels
Height : 720 pixels
Display aspect ratio : 16:9
Frame rate mode : Constant
Frame rate : 29.970 (30000/1001) FPS
Color space : YUV
Chroma subsampling : 4:2:0
Bit depth : 8 bits
Scan type : Progressive
Bits/(Pixel*Frame) : 0.095
Stream size : 2.10 GiB (93%)
Default : Yes
Forced : No
Color range : Limited
Color primaries : BT.709
Transfer characteristics : BT.709
Matrix coefficients : BT.709

TJPW 8th Tokyo Princess Cup 2021

Audio
ID : 2
Format : AAC LC
Format/Info : Advanced Audio
Codec ID : A_AAC-2
Duration : 1 h 55 min
Bit rate : 192 kb/s
Channel(s) : 2 channels
Channel layout : L R
Sampling rate : 48.0 kHz
Frame rate : 46.875 FPS (1024 SPF)
Compression mode : Lossy
Delay relative to video : 17 ms
Stream size : 156 MiB (7%)
Default : Yes
Forced : No

Complete name : Tokyo.Joshi.Pro.2021.07.23.8th.Tokyo.Princess.Cup.Day.2.1080p.WEB.h264-LATE.mkv
Format : Matroska
Format version : Version 4
File size : 5.42 GiB
Duration : 1 h 55 min
Overall bit rate mode : Variable
Overall bit rate : 6 740 kb/s

TJPW 8th Tokyo Princess Cup 2021

Video
ID : 1
Format : AVC
Codec ID : V_MPEG4/ISO/AVC
Duration : 1 h 55 min
Bit rate mode : Variable
Bit rate : 6 357 kb/s
Maximum bit rate : 18.0 Mb/s
Width : 1 920 pixels
Height : 1 080 pixels
Display aspect ratio : 16:9
Frame rate mode : Constant
Frame rate : 29.970 (30000/1001) FPS
Color space : YUV
Chroma subsampling : 4:2:0
Bit depth : 8 bits
Scan type : Progressive
Bits/(Pixel*Frame) : 0.102
Stream size : 5.11 GiB (94%)
Default : Yes
Forced : No
Color range : Limited
Color primaries : BT.709
Transfer characteristics : BT.709
Matrix coefficients : BT.709

TJPW 8th Tokyo Princess Cup 2021

Audio
ID : 2
Format : AAC LC
Format/Info : Advanced Audio
Codec ID : A_AAC-2
Duration : 1 h 55 min
Bit rate : 384 kb/s
Channel(s) : 2 channels
Channel layout : L R
Sampling rate : 48.0 kHz
Frame rate : 46.875 FPS (1024 SPF)
Compression mode : Lossy
Delay relative to video : 17 ms
Stream size : 314 MiB (6%)
Default : Yes
Forced : No

Complete name : Tokyo.Joshi.Pro.2021.07.23.8th.Tokyo.Princess.Cup.Day.2.WEB.h264-LATE.mkv
Format : Matroska
Format version : Version 4
File size : 1.02 GiB
Duration : 1 h 55 min
Overall bit rate mode : Variable
Overall bit rate : 1 264 kb/s

TJPW 8th Tokyo Princess Cup 2021

Video
ID : 1
Format : AVC
Format/Info : Advanced Video
Duration : 1 h 55 min
Bit rate mode : Variable
Bit rate : 1 136 kb/s
Maximum bit rate : 4 000 kb/s
Width : 960 pixels
Height : 540 pixels
Display aspect ratio : 16:9
Frame rate mode : Constant
Frame rate : 29.970 (30000/1001) FPS
Color space : YUV
Chroma subsampling : 4:2:0
Bit depth : 8 bits
Scan type : Progressive
Bits/(Pixel*Frame) : 0.073
Stream size : 935 MiB (90%)
Default : Yes
Forced : No
Color range : Limited
Color primaries : BT.709
Transfer characteristics : BT.709
Matrix coefficients : BT.709

TJPW 8th Tokyo Princess Cup 2021

Audio
ID : 2
Format : AAC LC
Format/Info : Advanced Audio
Codec ID : A_AAC-2
Duration : 1 h 55 min
Bit rate : 125 kb/s
Channel(s) : 2 channels
Channel layout : L R
Sampling rate : 48.0 kHz
Frame rate : 46.875 FPS (1024 SPF)
Compression mode : Lossy
Delay relative to video : 17 ms
Stream size : 103 MiB (10%)
Default : Yes
Forced : No

TJPW 8th Tokyo Princess Cup 2021

Complete name : Tokyo.Joshi.Pro.2021.07.23.8th.Tokyo.Princess.Cup.Day.2.720p.WEB.h264-LATE.mkv
Format : Matroska
Format version : Version 4
File size : 2.26 GiB
Duration : 1 h 55 min
Overall bit rate mode : Variable
Overall bit rate : 2 807 kb/s

Video
ID : 1
Format : AVC
Format/Info : Advanced Video
Duration : 1 h 55 min
Bit rate mode : Variable
Bit rate : 2 615 kb/s
Maximum bit rate : 8 000 kb/s
Width : 1 280 pixels
Height : 720 pixels
Display aspect ratio : 16:9
Frame rate mode : Constant
Frame rate : 29.970 (30000/1001) FPS
Color space : YUV
Chroma subsampling : 4:2:0
Bit depth : 8 bits
Scan type : Progressive
Bits/(Pixel*Frame) : 0.095
Stream size : 2.10 GiB (93%)
Default : Yes
Forced : No
Color range : Limited
Color primaries : BT.709
Transfer characteristics : BT.709
Matrix coefficients : BT.709

TJPW 8th Tokyo Princess Cup 2021

Audio
ID : 2
Format : AAC LC
Format/Info : Advanced Audio
Codec ID : A_AAC-2
Duration : 1 h 55 min
Bit rate : 192 kb/s
Channel(s) : 2 channels
Channel layout : L R
Sampling rate : 48.0 kHz
Frame rate : 46.875 FPS (1024 SPF)
Compression mode : Lossy
Delay relative to video : 17 ms
Stream size : 156 MiB (7%)
Default : Yes
Forced : No

Complete name : Tokyo.Joshi.Pro.2021.07.23.8th.Tokyo.Princess.Cup.Day.2.1080p.WEB.h264-LATE.mkv
Format : Matroska
Format version : Version 4
File size : 5.42 GiB
Duration : 1 h 55 min
Overall bit rate mode : Variable
Overall bit rate : 6 740 kb/s

TJPW 8th Tokyo Princess Cup 2021

Video
ID : 1
Format : AVC
Codec ID : V_MPEG4/ISO/AVC
Duration : 1 h 55 min
Bit rate mode : Variable
Bit rate : 6 357 kb/s
Maximum bit rate : 18.0 Mb/s
Width : 1 920 pixels
Height : 1 080 pixels
Display aspect ratio : 16:9
Frame rate mode : Constant
Frame rate : 29.970 (30000/1001) FPS
Color space : YUV
Chroma subsampling : 4:2:0
Bit depth : 8 bits
Scan type : Progressive
Bits/(Pixel*Frame) : 0.102
Stream size : 5.11 GiB (94%)
Default : Yes
Forced : No
Color range : Limited
Color primaries : BT.709
Transfer characteristics : BT.709
Matrix coefficients : BT.709

TJPW 8th Tokyo Princess Cup 2021

Audio
ID : 2
Format : AAC LC
Format/Info : Advanced Audio
Codec ID : A_AAC-2
Duration : 1 h 55 min
Bit rate : 384 kb/s
Channel(s) : 2 channels
Channel layout : L R
Sampling rate : 48.0 kHz
Frame rate : 46.875 FPS (1024 SPF)
Compression mode : Lossy
Delay relative to video : 17 ms
Stream size : 314 MiB (6%)
Default : Yes
Forced : No

Complete name : Tokyo.Joshi.Pro.2021.07.23.8th.Tokyo.Princess.Cup.Day.2.WEB.h264-LATE.mkv
Format : Matroska
Format version : Version 4
File size : 1.02 GiB
Duration : 1 h 55 min
Overall bit rate mode : Variable
Overall bit rate : 1 264 kb/s

TJPW 8th Tokyo Princess Cup 2021

Video
ID : 1
Format : AVC
Format/Info : Advanced Video
Duration : 1 h 55 min
Bit rate mode : Variable
Bit rate : 1 136 kb/s
Maximum bit rate : 4 000 kb/s
Width : 960 pixels
Height : 540 pixels
Display aspect ratio : 16:9
Frame rate mode : Constant
Frame rate : 29.970 (30000/1001) FPS
Color space : YUV
Chroma subsampling : 4:2:0
Bit depth : 8 bits
Scan type : Progressive
Bits/(Pixel*Frame) : 0.073
Stream size : 935 MiB (90%)
Default : Yes
Forced : No
Color range : Limited
Color primaries : BT.709
Transfer characteristics : BT.709
Matrix coefficients : BT.709

TJPW 8th Tokyo Princess Cup 2021

Audio
ID : 2
Format : AAC LC
Format/Info : Advanced Audio
Codec ID : A_AAC-2
Duration : 1 h 55 min
Bit rate : 125 kb/s
Channel(s) : 2 channels
Channel layout : L R
Sampling rate : 48.0 kHz
Frame rate : 46.875 FPS (1024 SPF)
Compression mode : Lossy
Delay relative to video : 17 ms
Stream size : 103 MiB (10%)
Default : Yes
Forced : No

TJPW 8th Tokyo Princess Cup 2021

Complete name : Tokyo.Joshi.Pro.2021.07.23.8th.Tokyo.Princess.Cup.Day.2.720p.WEB.h264-LATE.mkv
Format : Matroska
Format version : Version 4
File size : 2.26 GiB
Duration : 1 h 55 min
Overall bit rate mode : Variable
Overall bit rate : 2 807 kb/s

Video
ID : 1
Format : AVC
Format/Info : Advanced Video
Duration : 1 h 55 min
Bit rate mode : Variable
Bit rate : 2 615 kb/s
Maximum bit rate : 8 000 kb/s
Width : 1 280 pixels
Height : 720 pixels
Display aspect ratio : 16:9
Frame rate mode : Constant
Frame rate : 29.970 (30000/1001) FPS
Color space : YUV
Chroma subsampling : 4:2:0
Bit depth : 8 bits
Scan type : Progressive
Bits/(Pixel*Frame) : 0.095
Stream size : 2.10 GiB (93%)
Default : Yes
Forced : No
Color range : Limited
Color primaries : BT.709
Transfer characteristics : BT.709
Matrix coefficients : BT.709

TJPW 8th Tokyo Princess Cup 2021

Audio
ID : 2
Format : AAC LC
Format/Info : Advanced Audio
Codec ID : A_AAC-2
Duration : 1 h 55 min
Bit rate : 192 kb/s
Channel(s) : 2 channels
Channel layout : L R
Sampling rate : 48.0 kHz
Frame rate : 46.875 FPS (1024 SPF)
Compression mode : Lossy
Delay relative to video : 17 ms
Stream size : 156 MiB (7%)
Default : Yes
Forced : No

Complete name : Tokyo.Joshi.Pro.2021.07.23.8th.Tokyo.Princess.Cup.Day.2.1080p.WEB.h264-LATE.mkv
Format : Matroska
Format version : Version 4
File size : 5.42 GiB
Duration : 1 h 55 min
Overall bit rate mode : Variable
Overall bit rate : 6 740 kb/s

TJPW 8th Tokyo Princess Cup 2021

Video
ID : 1
Format : AVC
Codec ID : V_MPEG4/ISO/AVC
Duration : 1 h 55 min
Bit rate mode : Variable
Bit rate : 6 357 kb/s
Maximum bit rate : 18.0 Mb/s
Width : 1 920 pixels
Height : 1 080 pixels
Display aspect ratio : 16:9
Frame rate mode : Constant
Frame rate : 29.970 (30000/1001) FPS
Color space : YUV
Chroma subsampling : 4:2:0
Bit depth : 8 bits
Scan type : Progressive
Bits/(Pixel*Frame) : 0.102
Stream size : 5.11 GiB (94%)
Default : Yes
Forced : No
Color range : Limited
Color primaries : BT.709
Transfer characteristics : BT.709
Matrix coefficients : BT.709

TJPW 8th Tokyo Princess Cup 2021

Audio
ID : 2
Format : AAC LC
Format/Info : Advanced Audio
Codec ID : A_AAC-2
Duration : 1 h 55 min
Bit rate : 384 kb/s
Channel(s) : 2 channels
Channel layout : L R
Sampling rate : 48.0 kHz
Frame rate : 46.875 FPS (1024 SPF)
Compression mode : Lossy
Delay relative to video : 17 ms
Stream size : 314 MiB (6%)
Default : Yes
Forced : No

Complete name : Tokyo.Joshi.Pro.2021.07.23.8th.Tokyo.Princess.Cup.Day.2.WEB.h264-LATE.mkv
Format : Matroska
Format version : Version 4
File size : 1.02 GiB
Duration : 1 h 55 min
Overall bit rate mode : Variable
Overall bit rate : 1 264 kb/s

TJPW 8th Tokyo Princess Cup 2021

Video
ID : 1
Format : AVC
Format/Info : Advanced Video
Duration : 1 h 55 min
Bit rate mode : Variable
Bit rate : 1 136 kb/s
Maximum bit rate : 4 000 kb/s
Width : 960 pixels
Height : 540 pixels
Display aspect ratio : 16:9
Frame rate mode : Constant
Frame rate : 29.970 (30000/1001) FPS
Color space : YUV
Chroma subsampling : 4:2:0
Bit depth : 8 bits
Scan type : Progressive
Bits/(Pixel*Frame) : 0.073
Stream size : 935 MiB (90%)
Default : Yes
Forced : No
Color range : Limited
Color primaries : BT.709
Transfer characteristics : BT.709
Matrix coefficients : BT.709

TJPW 8th Tokyo Princess Cup 2021

Audio
ID : 2
Format : AAC LC
Format/Info : Advanced Audio
Codec ID : A_AAC-2
Duration : 1 h 55 min
Bit rate : 125 kb/s
Channel(s) : 2 channels
Channel layout : L R
Sampling rate : 48.0 kHz
Frame rate : 46.875 FPS (1024 SPF)
Compression mode : Lossy
Delay relative to video : 17 ms
Stream size : 103 MiB (10%)
Default : Yes
Forced : No

TJPW 8th Tokyo Princess Cup 2021

Complete name : Tokyo.Joshi.Pro.2021.07.23.8th.Tokyo.Princess.Cup.Day.2.720p.WEB.h264-LATE.mkv
Format : Matroska
Format version : Version 4
File size : 2.26 GiB
Duration : 1 h 55 min
Overall bit rate mode : Variable
Overall bit rate : 2 807 kb/s

Video
ID : 1
Format : AVC
Format/Info : Advanced Video
Duration : 1 h 55 min
Bit rate mode : Variable
Bit rate : 2 615 kb/s
Maximum bit rate : 8 000 kb/s
Width : 1 280 pixels
Height : 720 pixels
Display aspect ratio : 16:9
Frame rate mode : Constant
Frame rate : 29.970 (30000/1001) FPS
Color space : YUV
Chroma subsampling : 4:2:0
Bit depth : 8 bits
Scan type : Progressive
Bits/(Pixel*Frame) : 0.095
Stream size : 2.10 GiB (93%)
Default : Yes
Forced : No
Color range : Limited
Color primaries : BT.709
Transfer characteristics : BT.709
Matrix coefficients : BT.709

TJPW 8th Tokyo Princess Cup 2021

Audio
ID : 2
Format : AAC LC
Format/Info : Advanced Audio
Codec ID : A_AAC-2
Duration : 1 h 55 min
Bit rate : 192 kb/s
Channel(s) : 2 channels
Channel layout : L R
Sampling rate : 48.0 kHz
Frame rate : 46.875 FPS (1024 SPF)
Compression mode : Lossy
Delay relative to video : 17 ms
Stream size : 156 MiB (7%)
Default : Yes
Forced : No

Complete name : Tokyo.Joshi.Pro.2021.07.23.8th.Tokyo.Princess.Cup.Day.2.1080p.WEB.h264-LATE.mkv
Format : Matroska
Format version : Version 4
File size : 5.42 GiB
Duration : 1 h 55 min
Overall bit rate mode : Variable
Overall bit rate : 6 740 kb/s

TJPW 8th Tokyo Princess Cup 2021

Video
ID : 1
Format : AVC
Codec ID : V_MPEG4/ISO/AVC
Duration : 1 h 55 min
Bit rate mode : Variable
Bit rate : 6 357 kb/s
Maximum bit rate : 18.0 Mb/s
Width : 1 920 pixels
Height : 1 080 pixels
Display aspect ratio : 16:9
Frame rate mode : Constant
Frame rate : 29.970 (30000/1001) FPS
Color space : YUV
Chroma subsampling : 4:2:0
Bit depth : 8 bits
Scan type : Progressive
Bits/(Pixel*Frame) : 0.102
Stream size : 5.11 GiB (94%)
Default : Yes
Forced : No
Color range : Limited
Color primaries : BT.709
Transfer characteristics : BT.709
Matrix coefficients : BT.709

TJPW 8th Tokyo Princess Cup 2021

Audio
ID : 2
Format : AAC LC
Format/Info : Advanced Audio
Codec ID : A_AAC-2
Duration : 1 h 55 min
Bit rate : 384 kb/s
Channel(s) : 2 channels
Channel layout : L R
Sampling rate : 48.0 kHz
Frame rate : 46.875 FPS (1024 SPF)
Compression mode : Lossy
Delay relative to video : 17 ms
Stream size : 314 MiB (6%)
Default : Yes
Forced : No

Complete name : Tokyo.Joshi.Pro.2021.07.23.8th.Tokyo.Princess.Cup.Day.2.WEB.h264-LATE.mkv
Format : Matroska
Format version : Version 4
File size : 1.02 GiB
Duration : 1 h 55 min
Overall bit rate mode : Variable
Overall bit rate : 1 264 kb/s

TJPW 8th Tokyo Princess Cup 2021

Video
ID : 1
Format : AVC
Format/Info : Advanced Video
Duration : 1 h 55 min
Bit rate mode : Variable
Bit rate : 1 136 kb/s
Maximum bit rate : 4 000 kb/s
Width : 960 pixels
Height : 540 pixels
Display aspect ratio : 16:9
Frame rate mode : Constant
Frame rate : 29.970 (30000/1001) FPS
Color space : YUV
Chroma subsampling : 4:2:0
Bit depth : 8 bits
Scan type : Progressive
Bits/(Pixel*Frame) : 0.073
Stream size : 935 MiB (90%)
Default : Yes
Forced : No
Color range : Limited
Color primaries : BT.709
Transfer characteristics : BT.709
Matrix coefficients : BT.709

TJPW 8th Tokyo Princess Cup 2021

Audio
ID : 2
Format : AAC LC
Format/Info : Advanced Audio
Codec ID : A_AAC-2
Duration : 1 h 55 min
Bit rate : 125 kb/s
Channel(s) : 2 channels
Channel layout : L R
Sampling rate : 48.0 kHz
Frame rate : 46.875 FPS (1024 SPF)
Compression mode : Lossy
Delay relative to video : 17 ms
Stream size : 103 MiB (10%)
Default : Yes
Forced : No

TJPW 8th Tokyo Princess Cup 2021

Complete name : Tokyo.Joshi.Pro.2021.07.23.8th.Tokyo.Princess.Cup.Day.2.720p.WEB.h264-LATE.mkv
Format : Matroska
Format version : Version 4
File size : 2.26 GiB
Duration : 1 h 55 min
Overall bit rate mode : Variable
Overall bit rate : 2 807 kb/s

Video
ID : 1
Format : AVC
Format/Info : Advanced Video
Duration : 1 h 55 min
Bit rate mode : Variable
Bit rate : 2 615 kb/s
Maximum bit rate : 8 000 kb/s
Width : 1 280 pixels
Height : 720 pixels
Display aspect ratio : 16:9
Frame rate mode : Constant
Frame rate : 29.970 (30000/1001) FPS
Color space : YUV
Chroma subsampling : 4:2:0
Bit depth : 8 bits
Scan type : Progressive
Bits/(Pixel*Frame) : 0.095
Stream size : 2.10 GiB (93%)
Default : Yes
Forced : No
Color range : Limited
Color primaries : BT.709
Transfer characteristics : BT.709
Matrix coefficients : BT.709

TJPW 8th Tokyo Princess Cup 2021

Audio
ID : 2
Format : AAC LC
Format/Info : Advanced Audio
Codec ID : A_AAC-2
Duration : 1 h 55 min
Bit rate : 192 kb/s
Channel(s) : 2 channels
Channel layout : L R
Sampling rate : 48.0 kHz
Frame rate : 46.875 FPS (1024 SPF)
Compression mode : Lossy
Delay relative to video : 17 ms
Stream size : 156 MiB (7%)
Default : Yes
Forced : No

Complete name : Tokyo.Joshi.Pro.2021.07.23.8th.Tokyo.Princess.Cup.Day.2.1080p.WEB.h264-LATE.mkv
Format : Matroska
Format version : Version 4
File size : 5.42 GiB
Duration : 1 h 55 min
Overall bit rate mode : Variable
Overall bit rate : 6 740 kb/s

TJPW 8th Tokyo Princess Cup 2021

Video
ID : 1
Format : AVC
Codec ID : V_MPEG4/ISO/AVC
Duration : 1 h 55 min
Bit rate mode : Variable
Bit rate : 6 357 kb/s
Maximum bit rate : 18.0 Mb/s
Width : 1 920 pixels
Height : 1 080 pixels
Display aspect ratio : 16:9
Frame rate mode : Constant
Frame rate : 29.970 (30000/1001) FPS
Color space : YUV
Chroma subsampling : 4:2:0
Bit depth : 8 bits
Scan type : Progressive
Bits/(Pixel*Frame) : 0.102
Stream size : 5.11 GiB (94%)
Default : Yes
Forced : No
Color range : Limited
Color primaries : BT.709
Transfer characteristics : BT.709
Matrix coefficients : BT.709

TJPW 8th Tokyo Princess Cup 2021

Audio
ID : 2
Format : AAC LC
Format/Info : Advanced Audio
Codec ID : A_AAC-2
Duration : 1 h 55 min
Bit rate : 384 kb/s
Channel(s) : 2 channels
Channel layout : L R
Sampling rate : 48.0 kHz
Frame rate : 46.875 FPS (1024 SPF)
Compression mode : Lossy
Delay relative to video : 17 ms
Stream size : 314 MiB (6%)
Default : Yes
Forced : No

Complete name : Tokyo.Joshi.Pro.2021.07.23.8th.Tokyo.Princess.Cup.Day.2.WEB.h264-LATE.mkv
Format : Matroska
Format version : Version 4
File size : 1.02 GiB
Duration : 1 h 55 min
Overall bit rate mode : Variable
Overall bit rate : 1 264 kb/s

TJPW 8th Tokyo Princess Cup 2021

Video
ID : 1
Format : AVC
Format/Info : Advanced Video
Duration : 1 h 55 min
Bit rate mode : Variable
Bit rate : 1 136 kb/s
Maximum bit rate : 4 000 kb/s
Width : 960 pixels
Height : 540 pixels
Display aspect ratio : 16:9
Frame rate mode : Constant
Frame rate : 29.970 (30000/1001) FPS
Color space : YUV
Chroma subsampling : 4:2:0
Bit depth : 8 bits
Scan type : Progressive
Bits/(Pixel*Frame) : 0.073
Stream size : 935 MiB (90%)
Default : Yes
Forced : No
Color range : Limited
Color primaries : BT.709
Transfer characteristics : BT.709
Matrix coefficients : BT.709

TJPW 8th Tokyo Princess Cup 2021

Audio
ID : 2
Format : AAC LC
Format/Info : Advanced Audio
Codec ID : A_AAC-2
Duration : 1 h 55 min
Bit rate : 125 kb/s
Channel(s) : 2 channels
Channel layout : L R
Sampling rate : 48.0 kHz
Frame rate : 46.875 FPS (1024 SPF)
Compression mode : Lossy
Delay relative to video : 17 ms
Stream size : 103 MiB (10%)
Default : Yes
Forced : No

TJPW 8th Tokyo Princess Cup 2021

Complete name : Tokyo.Joshi.Pro.2021.07.23.8th.Tokyo.Princess.Cup.Day.2.720p.WEB.h264-LATE.mkv
Format : Matroska
Format version : Version 4
File size : 2.26 GiB
Duration : 1 h 55 min
Overall bit rate mode : Variable
Overall bit rate : 2 807 kb/s

Video
ID : 1
Format : AVC
Format/Info : Advanced Video
Duration : 1 h 55 min
Bit rate mode : Variable
Bit rate : 2 615 kb/s
Maximum bit rate : 8 000 kb/s
Width : 1 280 pixels
Height : 720 pixels
Display aspect ratio : 16:9
Frame rate mode : Constant
Frame rate : 29.970 (30000/1001) FPS
Color space : YUV
Chroma subsampling : 4:2:0
Bit depth : 8 bits
Scan type : Progressive
Bits/(Pixel*Frame) : 0.095
Stream size : 2.10 GiB (93%)
Default : Yes
Forced : No
Color range : Limited
Color primaries : BT.709
Transfer characteristics : BT.709
Matrix coefficients : BT.709

TJPW 8th Tokyo Princess Cup 2021

Audio
ID : 2
Format : AAC LC
Format/Info : Advanced Audio
Codec ID : A_AAC-2
Duration : 1 h 55 min
Bit rate : 192 kb/s
Channel(s) : 2 channels
Channel layout : L R
Sampling rate : 48.0 kHz
Frame rate : 46.875 FPS (1024 SPF)
Compression mode : Lossy
Delay relative to video : 17 ms
Stream size : 156 MiB (7%)
Default : Yes
Forced : No

Complete name : Tokyo.Joshi.Pro.2021.07.23.8th.Tokyo.Princess.Cup.Day.2.1080p.WEB.h264-LATE.mkv
Format : Matroska
Format version : Version 4
File size : 5.42 GiB
Duration : 1 h 55 min
Overall bit rate mode : Variable
Overall bit rate : 6 740 kb/s

TJPW 8th Tokyo Princess Cup 2021

Video
ID : 1
Format : AVC
Codec ID : V_MPEG4/ISO/AVC
Duration : 1 h 55 min
Bit rate mode : Variable
Bit rate : 6 357 kb/s
Maximum bit rate : 18.0 Mb/s
Width : 1 920 pixels
Height : 1 080 pixels
Display aspect ratio : 16:9
Frame rate mode : Constant
Frame rate : 29.970 (30000/1001) FPS
Color space : YUV
Chroma subsampling : 4:2:0
Bit depth : 8 bits
Scan type : Progressive
Bits/(Pixel*Frame) : 0.102
Stream size : 5.11 GiB (94%)
Default : Yes
Forced : No
Color range : Limited
Color primaries : BT.709
Transfer characteristics : BT.709
Matrix coefficients : BT.709

TJPW 8th Tokyo Princess Cup 2021

Audio
ID : 2
Format : AAC LC
Format/Info : Advanced Audio
Codec ID : A_AAC-2
Duration : 1 h 55 min
Bit rate : 384 kb/s
Channel(s) : 2 channels
Channel layout : L R
Sampling rate : 48.0 kHz
Frame rate : 46.875 FPS (1024 SPF)
Compression mode : Lossy
Delay relative to video : 17 ms
Stream size : 314 MiB (6%)
Default : Yes
Forced : No

Complete name : Tokyo.Joshi.Pro.2021.07.23.8th.Tokyo.Princess.Cup.Day.2.WEB.h264-LATE.mkv
Format : Matroska
Format version : Version 4
File size : 1.02 GiB
Duration : 1 h 55 min
Overall bit rate mode : Variable
Overall bit rate : 1 264 kb/s

TJPW 8th Tokyo Princess Cup 2021

Video
ID : 1
Format : AVC
Format/Info : Advanced Video
Duration : 1 h 55 min
Bit rate mode : Variable
Bit rate : 1 136 kb/s
Maximum bit rate : 4 000 kb/s
Width : 960 pixels
Height : 540 pixels
Display aspect ratio : 16:9
Frame rate mode : Constant
Frame rate : 29.970 (30000/1001) FPS
Color space : YUV
Chroma subsampling : 4:2:0
Bit depth : 8 bits
Scan type : Progressive
Bits/(Pixel*Frame) : 0.073
Stream size : 935 MiB (90%)
Default : Yes
Forced : No
Color range : Limited
Color primaries : BT.709
Transfer characteristics : BT.709
Matrix coefficients : BT.709

TJPW 8th Tokyo Princess Cup 2021

Audio
ID : 2
Format : AAC LC
Format/Info : Advanced Audio
Codec ID : A_AAC-2
Duration : 1 h 55 min
Bit rate : 125 kb/s
Channel(s) : 2 channels
Channel layout : L R
Sampling rate : 48.0 kHz
Frame rate : 46.875 FPS (1024 SPF)
Compression mode : Lossy
Delay relative to video : 17 ms
Stream size : 103 MiB (10%)
Default : Yes
Forced : No

TJPW 8th Tokyo Princess Cup 2021

Complete name : Tokyo.Joshi.Pro.2021.07.23.8th.Tokyo.Princess.Cup.Day.2.720p.WEB.h264-LATE.mkv
Format : Matroska
Format version : Version 4
File size : 2.26 GiB
Duration : 1 h 55 min
Overall bit rate mode : Variable
Overall bit rate : 2 807 kb/s

Video
ID : 1
Format : AVC
Format/Info : Advanced Video
Duration : 1 h 55 min
Bit rate mode : Variable
Bit rate : 2 615 kb/s
Maximum bit rate : 8 000 kb/s
Width : 1 280 pixels
Height : 720 pixels
Display aspect ratio : 16:9
Frame rate mode : Constant
Frame rate : 29.970 (30000/1001) FPS
Color space : YUV
Chroma subsampling : 4:2:0
Bit depth : 8 bits
Scan type : Progressive
Bits/(Pixel*Frame) : 0.095
Stream size : 2.10 GiB (93%)
Default : Yes
Forced : No
Color range : Limited
Color primaries : BT.709
Transfer characteristics : BT.709
Matrix coefficients : BT.709

TJPW 8th Tokyo Princess Cup 2021

Audio
ID : 2
Format : AAC LC
Format/Info : Advanced Audio
Codec ID : A_AAC-2
Duration : 1 h 55 min
Bit rate : 192 kb/s
Channel(s) : 2 channels
Channel layout : L R
Sampling rate : 48.0 kHz
Frame rate : 46.875 FPS (1024 SPF)
Compression mode : Lossy
Delay relative to video : 17 ms
Stream size : 156 MiB (7%)
Default : Yes
Forced : No

Complete name : Tokyo.Joshi.Pro.2021.07.23.8th.Tokyo.Princess.Cup.Day.2.1080p.WEB.h264-LATE.mkv
Format : Matroska
Format version : Version 4
File size : 5.42 GiB
Duration : 1 h 55 min
Overall bit rate mode : Variable
Overall bit rate : 6 740 kb/s

TJPW 8th Tokyo Princess Cup 2021

Video
ID : 1
Format : AVC
Codec ID : V_MPEG4/ISO/AVC
Duration : 1 h 55 min
Bit rate mode : Variable
Bit rate : 6 357 kb/s
Maximum bit rate : 18.0 Mb/s
Width : 1 920 pixels
Height : 1 080 pixels
Display aspect ratio : 16:9
Frame rate mode : Constant
Frame rate : 29.970 (30000/1001) FPS
Color space : YUV
Chroma subsampling : 4:2:0
Bit depth : 8 bits
Scan type : Progressive
Bits/(Pixel*Frame) : 0.102
Stream size : 5.11 GiB (94%)
Default : Yes
Forced : No
Color range : Limited
Color primaries : BT.709
Transfer characteristics : BT.709
Matrix coefficients : BT.709

TJPW 8th Tokyo Princess Cup 2021

Audio
ID : 2
Format : AAC LC
Format/Info : Advanced Audio
Codec ID : A_AAC-2
Duration : 1 h 55 min
Bit rate : 384 kb/s
Channel(s) : 2 channels
Channel layout : L R
Sampling rate : 48.0 kHz
Frame rate : 46.875 FPS (1024 SPF)
Compression mode : Lossy
Delay relative to video : 17 ms
Stream size : 314 MiB (6%)
Default : Yes
Forced : No

Complete name : Tokyo.Joshi.Pro.2021.07.23.8th.Tokyo.Princess.Cup.Day.2.WEB.h264-LATE.mkv
Format : Matroska
Format version : Version 4
File size : 1.02 GiB
Duration : 1 h 55 min
Overall bit rate mode : Variable
Overall bit rate : 1 264 kb/s

TJPW 8th Tokyo Princess Cup 2021

Video
ID : 1
Format : AVC
Format/Info : Advanced Video
Duration : 1 h 55 min
Bit rate mode : Variable
Bit rate : 1 136 kb/s
Maximum bit rate : 4 000 kb/s
Width : 960 pixels
Height : 540 pixels
Display aspect ratio : 16:9
Frame rate mode : Constant
Frame rate : 29.970 (30000/1001) FPS
Color space : YUV
Chroma subsampling : 4:2:0
Bit depth : 8 bits
Scan type : Progressive
Bits/(Pixel*Frame) : 0.073
Stream size : 935 MiB (90%)
Default : Yes
Forced : No
Color range : Limited
Color primaries : BT.709
Transfer characteristics : BT.709
Matrix coefficients : BT.709

TJPW 8th Tokyo Princess Cup 2021

Audio
ID : 2
Format : AAC LC
Format/Info : Advanced Audio
Codec ID : A_AAC-2
Duration : 1 h 55 min
Bit rate : 125 kb/s
Channel(s) : 2 channels
Channel layout : L R
Sampling rate : 48.0 kHz
Frame rate : 46.875 FPS (1024 SPF)
Compression mode : Lossy
Delay relative to video : 17 ms
Stream size : 103 MiB (10%)
Default : Yes
Forced : No

TJPW 8th Tokyo Princess Cup 2021

 

[collapse]

 

 

https://dx-tv.com/

Leave a Reply

Your email address will not be published. Required fields are marked *

This site uses Akismet to reduce spam. Learn how your comment data is processed.