TJPW 8th Tokyo Princess Cup 2021 Day 4 Online Free

TJPW 8th Tokyo Princess Cup 2021 Day 4 07 25 Online Free Replay DX-TV

Contents show

TJPW 8th Tokyo Princess Cup

TJPW 8th Tokyo Princess Cup

 

 

 

Download Links with premium High Speed


 

Dopapk

 

 

Show Links

 

http://shrt10.com/V0In3gpWU
http://shrt10.com/6OYHnAPjo
http://shrt10.com/a8kz5NW

 

[collapse]

 

 

Nitroflare

 

 

Show Links

 

http://shrt10.com/A1RuLV
http://shrt10.com/TgsYt
http://shrt10.com/0U2MMP2Xj

[collapse]

 

 

Rapidgator

 

 

Show Links

 

http://shrt10.com/0mzivorsW
http://shrt10.com/tzVX1s73
http://shrt10.com/TJcjF52

 

[collapse]

 

 

Uploaded

 

 

Show Links

 

http://shrt10.com/hk4tvEDgj
http://shrt10.com/pratNg

 

[collapse]

 

 

Watch online

 

Server 1

 

 

 

 

TJPW 8th Tokyo Princess Cup

 

 

 

 

Server-2

 

 

 

 

watch now

 

 

 

|Server-3

 

 

 

 

watch now

 

 

Uploaded By Site DX-TV.com

 

 

Show Info This Show

TJPW 8th Tokyo Princess Cup

 

Complete name : Tokyo.Joshi.Pro.2021.07.25.8th.Tokyo.Princess.Cup.Day.4.720p.WEB.h264-LATE.mkv
Format : Matroska
Format version : Version 4
File size : 2.29 GiB
Duration : 1 h 50 min
Overall bit rate mode : Variable
Overall bit rate : 2 987 kb/s

Video
ID : 1
Format : AVC
Format/Info : Advanced Video
Duration : 1 h 50 min
Bit rate mode : Variable
Bit rate : 2 795 kb/s
Maximum bit rate : 8 000 kb/s
Width : 1 280 pixels
Height : 720 pixels
Display aspect ratio : 16:9
Frame rate mode : Constant
Frame rate : 29.970 (30000/1001) FPS
Color space : YUV
Chroma subsampling : 4:2:0
Bit depth : 8 bits
Scan type : Progressive
Bits/(Pixel*Frame) : 0.101
Stream size : 2.15 GiB (94%)
Default : Yes
Forced : No
Color range : Limited
Color primaries : BT.709
Transfer characteristics : BT.709
Matrix coefficients : BT.709

TJPW 8th Tokyo Princess Cup

Audio
ID : 2
Format : AAC LC
Format/Info : Advanced Audio
Codec ID : A_AAC-2
Duration : 1 h 50 min
Bit rate : 192 kb/s
Channel(s) : 2 channels
Channel layout : L R
Sampling rate : 48.0 kHz
Frame rate : 46.875 FPS (1024 SPF)
Compression mode : Lossy
Delay relative to video : 8 ms
Stream size : 149 MiB (6%)
Default : Yes
Forced : No

Complete name : Tokyo.Joshi.Pro.2021.07.25.8th.Tokyo.Princess.Cup.Day.4.1080p.WEB.h264-LATE.mkv
Format : Matroska
Format version : Version 4
File size : 5.47 GiB
Duration : 1 h 50 min
Overall bit rate mode : Variable
Overall bit rate : 7 124 kb/s\

TJPW 8th Tokyo Princess Cup

Video
ID : 1
Format : AVC
Format/Info : Advanced Video
Duration : 1 h 50 min
Bit rate mode : Variable
Bit rate : 6 740 kb/s
Maximum bit rate : 18.0 Mb/s
Width : 1 920 pixels
Height : 1 080 pixels
Display aspect ratio : 16:9
Frame rate mode : Constant
Frame rate : 29.970 (30000/1001) FPS
Color space : YUV
Chroma subsampling : 4:2:0
Bit depth : 8 bits
Scan type : Progressive
Bits/(Pixel*Frame) : 0.108
Stream size : 5.18 GiB (95%)
Default : Yes
Forced : No
Color range : Limited
Color primaries : BT.709
Transfer characteristics : BT.709
Matrix coefficients : BT.709

TJPW 8th Tokyo Princess Cup

Audio
ID : 2
Format : AAC LC
Codec ID : A_AAC-2
Duration : 1 h 50 min
Bit rate : 384 kb/s
Channel(s) : 2 channels
Channel layout : L R
Sampling rate : 48.0 kHz
Frame rate : 46.875 FPS
Compression mode : Lossy
Delay relative to video : 8 ms
Stream size : 300 MiB (5%)
Default : Yes
Forced : No

Complete name : Tokyo.Joshi.Pro.2021.07.25.8th.Tokyo.Princess.Cup.Day.4.WEB.h264-LATE.mkv
Format : Matroska
Format version : Version 4
File size : 1.02 GiB
Duration : 1 h 50 min
Overall bit rate mode : Variable
Overall bit rate : 1 331 kb/s

TJPW 8th Tokyo Princess Cup

Video
ID : 1
Format : AVC
Format/Info : Advanced Video
Duration : 1 h 50 min
Bit rate mode : Variable
Bit rate : 1 203 kb/s
Maximum bit rate : 4 000 kb/s
Width : 960 pixels
Height : 540 pixels
Display aspect ratio : 16:9
Frame rate mode : Constant
Frame rate : 29.970 (30000/1001) FPS
Color space : YUV
Chroma subsampling : 4:2:0
Bit depth : 8 bits
Scan type : Progressive
Bits/(Pixel*Frame) : 0.077
Stream size : 947 MiB (90%)
Default : Yes
Forced : No
Color range : Limited
Color primaries : BT.709
Transfer characteristics : BT.709
Matrix coefficients : BT.709

TJPW 8th Tokyo Princess Cup

Audio
ID : 2
Format : AAC LC
Format/Info : Advanced Audio
Codec ID : A_AAC-2
Duration : 1 h 50 min
Bit rate : 125 kb/s
Channel(s) : 2 channels
Channel layout : L R
Sampling rate : 48.0 kHz
Frame rate : 46.875 FPS (1024 SPF)
Compression mode : Lossy
Delay relative to video : 8 ms
Stream size : 98.6 MiB (9%)
Default : Yes
Forced : No

TJPW 8th Tokyo Princess Cup

Complete name : Tokyo.Joshi.Pro.2021.07.25.8th.Tokyo.Princess.Cup.Day.4.720p.WEB.h264-LATE.mkv
Format : Matroska
Format version : Version 4
File size : 2.29 GiB
Duration : 1 h 50 min
Overall bit rate mode : Variable
Overall bit rate : 2 987 kb/s

Video
ID : 1
Format : AVC
Format/Info : Advanced Video
Duration : 1 h 50 min
Bit rate mode : Variable
Bit rate : 2 795 kb/s
Maximum bit rate : 8 000 kb/s
Width : 1 280 pixels
Height : 720 pixels
Display aspect ratio : 16:9
Frame rate mode : Constant
Frame rate : 29.970 (30000/1001) FPS
Color space : YUV
Chroma subsampling : 4:2:0
Bit depth : 8 bits
Scan type : Progressive
Bits/(Pixel*Frame) : 0.101
Stream size : 2.15 GiB (94%)
Default : Yes
Forced : No
Color range : Limited
Color primaries : BT.709
Transfer characteristics : BT.709
Matrix coefficients : BT.709

TJPW 8th Tokyo Princess Cup

Audio
ID : 2
Format : AAC LC
Format/Info : Advanced Audio
Codec ID : A_AAC-2
Duration : 1 h 50 min
Bit rate : 192 kb/s
Channel(s) : 2 channels
Channel layout : L R
Sampling rate : 48.0 kHz
Frame rate : 46.875 FPS (1024 SPF)
Compression mode : Lossy
Delay relative to video : 8 ms
Stream size : 149 MiB (6%)
Default : Yes
Forced : No

Complete name : Tokyo.Joshi.Pro.2021.07.25.8th.Tokyo.Princess.Cup.Day.4.1080p.WEB.h264-LATE.mkv
Format : Matroska
Format version : Version 4
File size : 5.47 GiB
Duration : 1 h 50 min
Overall bit rate mode : Variable
Overall bit rate : 7 124 kb/s\

TJPW 8th Tokyo Princess Cup

Video
ID : 1
Format : AVC
Format/Info : Advanced Video
Duration : 1 h 50 min
Bit rate mode : Variable
Bit rate : 6 740 kb/s
Maximum bit rate : 18.0 Mb/s
Width : 1 920 pixels
Height : 1 080 pixels
Display aspect ratio : 16:9
Frame rate mode : Constant
Frame rate : 29.970 (30000/1001) FPS
Color space : YUV
Chroma subsampling : 4:2:0
Bit depth : 8 bits
Scan type : Progressive
Bits/(Pixel*Frame) : 0.108
Stream size : 5.18 GiB (95%)
Default : Yes
Forced : No
Color range : Limited
Color primaries : BT.709
Transfer characteristics : BT.709
Matrix coefficients : BT.709

TJPW 8th Tokyo Princess Cup

Audio
ID : 2
Format : AAC LC
Codec ID : A_AAC-2
Duration : 1 h 50 min
Bit rate : 384 kb/s
Channel(s) : 2 channels
Channel layout : L R
Sampling rate : 48.0 kHz
Frame rate : 46.875 FPS
Compression mode : Lossy
Delay relative to video : 8 ms
Stream size : 300 MiB (5%)
Default : Yes
Forced : No

Complete name : Tokyo.Joshi.Pro.2021.07.25.8th.Tokyo.Princess.Cup.Day.4.WEB.h264-LATE.mkv
Format : Matroska
Format version : Version 4
File size : 1.02 GiB
Duration : 1 h 50 min
Overall bit rate mode : Variable
Overall bit rate : 1 331 kb/s

TJPW 8th Tokyo Princess Cup

Video
ID : 1
Format : AVC
Format/Info : Advanced Video
Duration : 1 h 50 min
Bit rate mode : Variable
Bit rate : 1 203 kb/s
Maximum bit rate : 4 000 kb/s
Width : 960 pixels
Height : 540 pixels
Display aspect ratio : 16:9
Frame rate mode : Constant
Frame rate : 29.970 (30000/1001) FPS
Color space : YUV
Chroma subsampling : 4:2:0
Bit depth : 8 bits
Scan type : Progressive
Bits/(Pixel*Frame) : 0.077
Stream size : 947 MiB (90%)
Default : Yes
Forced : No
Color range : Limited
Color primaries : BT.709
Transfer characteristics : BT.709
Matrix coefficients : BT.709

TJPW 8th Tokyo Princess Cup

Audio
ID : 2
Format : AAC LC
Format/Info : Advanced Audio
Codec ID : A_AAC-2
Duration : 1 h 50 min
Bit rate : 125 kb/s
Channel(s) : 2 channels
Channel layout : L R
Sampling rate : 48.0 kHz
Frame rate : 46.875 FPS (1024 SPF)
Compression mode : Lossy
Delay relative to video : 8 ms
Stream size : 98.6 MiB (9%)
Default : Yes
Forced : No

TJPW 8th Tokyo Princess Cup

Complete name : Tokyo.Joshi.Pro.2021.07.25.8th.Tokyo.Princess.Cup.Day.4.720p.WEB.h264-LATE.mkv
Format : Matroska
Format version : Version 4
File size : 2.29 GiB
Duration : 1 h 50 min
Overall bit rate mode : Variable
Overall bit rate : 2 987 kb/s

Video
ID : 1
Format : AVC
Format/Info : Advanced Video
Duration : 1 h 50 min
Bit rate mode : Variable
Bit rate : 2 795 kb/s
Maximum bit rate : 8 000 kb/s
Width : 1 280 pixels
Height : 720 pixels
Display aspect ratio : 16:9
Frame rate mode : Constant
Frame rate : 29.970 (30000/1001) FPS
Color space : YUV
Chroma subsampling : 4:2:0
Bit depth : 8 bits
Scan type : Progressive
Bits/(Pixel*Frame) : 0.101
Stream size : 2.15 GiB (94%)
Default : Yes
Forced : No
Color range : Limited
Color primaries : BT.709
Transfer characteristics : BT.709
Matrix coefficients : BT.709

TJPW 8th Tokyo Princess Cup

Audio
ID : 2
Format : AAC LC
Format/Info : Advanced Audio
Codec ID : A_AAC-2
Duration : 1 h 50 min
Bit rate : 192 kb/s
Channel(s) : 2 channels
Channel layout : L R
Sampling rate : 48.0 kHz
Frame rate : 46.875 FPS (1024 SPF)
Compression mode : Lossy
Delay relative to video : 8 ms
Stream size : 149 MiB (6%)
Default : Yes
Forced : No

Complete name : Tokyo.Joshi.Pro.2021.07.25.8th.Tokyo.Princess.Cup.Day.4.1080p.WEB.h264-LATE.mkv
Format : Matroska
Format version : Version 4
File size : 5.47 GiB
Duration : 1 h 50 min
Overall bit rate mode : Variable
Overall bit rate : 7 124 kb/s\

TJPW 8th Tokyo Princess Cup

Video
ID : 1
Format : AVC
Format/Info : Advanced Video
Duration : 1 h 50 min
Bit rate mode : Variable
Bit rate : 6 740 kb/s
Maximum bit rate : 18.0 Mb/s
Width : 1 920 pixels
Height : 1 080 pixels
Display aspect ratio : 16:9
Frame rate mode : Constant
Frame rate : 29.970 (30000/1001) FPS
Color space : YUV
Chroma subsampling : 4:2:0
Bit depth : 8 bits
Scan type : Progressive
Bits/(Pixel*Frame) : 0.108
Stream size : 5.18 GiB (95%)
Default : Yes
Forced : No
Color range : Limited
Color primaries : BT.709
Transfer characteristics : BT.709
Matrix coefficients : BT.709

TJPW 8th Tokyo Princess Cup

Audio
ID : 2
Format : AAC LC
Codec ID : A_AAC-2
Duration : 1 h 50 min
Bit rate : 384 kb/s
Channel(s) : 2 channels
Channel layout : L R
Sampling rate : 48.0 kHz
Frame rate : 46.875 FPS
Compression mode : Lossy
Delay relative to video : 8 ms
Stream size : 300 MiB (5%)
Default : Yes
Forced : No

Complete name : Tokyo.Joshi.Pro.2021.07.25.8th.Tokyo.Princess.Cup.Day.4.WEB.h264-LATE.mkv
Format : Matroska
Format version : Version 4
File size : 1.02 GiB
Duration : 1 h 50 min
Overall bit rate mode : Variable
Overall bit rate : 1 331 kb/s

TJPW 8th Tokyo Princess Cup

Video
ID : 1
Format : AVC
Format/Info : Advanced Video
Duration : 1 h 50 min
Bit rate mode : Variable
Bit rate : 1 203 kb/s
Maximum bit rate : 4 000 kb/s
Width : 960 pixels
Height : 540 pixels
Display aspect ratio : 16:9
Frame rate mode : Constant
Frame rate : 29.970 (30000/1001) FPS
Color space : YUV
Chroma subsampling : 4:2:0
Bit depth : 8 bits
Scan type : Progressive
Bits/(Pixel*Frame) : 0.077
Stream size : 947 MiB (90%)
Default : Yes
Forced : No
Color range : Limited
Color primaries : BT.709
Transfer characteristics : BT.709
Matrix coefficients : BT.709

TJPW 8th Tokyo Princess Cup

Audio
ID : 2
Format : AAC LC
Format/Info : Advanced Audio
Codec ID : A_AAC-2
Duration : 1 h 50 min
Bit rate : 125 kb/s
Channel(s) : 2 channels
Channel layout : L R
Sampling rate : 48.0 kHz
Frame rate : 46.875 FPS (1024 SPF)
Compression mode : Lossy
Delay relative to video : 8 ms
Stream size : 98.6 MiB (9%)
Default : Yes
Forced : No

TJPW 8th Tokyo Princess Cup

Complete name : Tokyo.Joshi.Pro.2021.07.25.8th.Tokyo.Princess.Cup.Day.4.720p.WEB.h264-LATE.mkv
Format : Matroska
Format version : Version 4
File size : 2.29 GiB
Duration : 1 h 50 min
Overall bit rate mode : Variable
Overall bit rate : 2 987 kb/s

Video
ID : 1
Format : AVC
Format/Info : Advanced Video
Duration : 1 h 50 min
Bit rate mode : Variable
Bit rate : 2 795 kb/s
Maximum bit rate : 8 000 kb/s
Width : 1 280 pixels
Height : 720 pixels
Display aspect ratio : 16:9
Frame rate mode : Constant
Frame rate : 29.970 (30000/1001) FPS
Color space : YUV
Chroma subsampling : 4:2:0
Bit depth : 8 bits
Scan type : Progressive
Bits/(Pixel*Frame) : 0.101
Stream size : 2.15 GiB (94%)
Default : Yes
Forced : No
Color range : Limited
Color primaries : BT.709
Transfer characteristics : BT.709
Matrix coefficients : BT.709

TJPW 8th Tokyo Princess Cup

Audio
ID : 2
Format : AAC LC
Format/Info : Advanced Audio
Codec ID : A_AAC-2
Duration : 1 h 50 min
Bit rate : 192 kb/s
Channel(s) : 2 channels
Channel layout : L R
Sampling rate : 48.0 kHz
Frame rate : 46.875 FPS (1024 SPF)
Compression mode : Lossy
Delay relative to video : 8 ms
Stream size : 149 MiB (6%)
Default : Yes
Forced : No

Complete name : Tokyo.Joshi.Pro.2021.07.25.8th.Tokyo.Princess.Cup.Day.4.1080p.WEB.h264-LATE.mkv
Format : Matroska
Format version : Version 4
File size : 5.47 GiB
Duration : 1 h 50 min
Overall bit rate mode : Variable
Overall bit rate : 7 124 kb/s\

TJPW 8th Tokyo Princess Cup

Video
ID : 1
Format : AVC
Format/Info : Advanced Video
Duration : 1 h 50 min
Bit rate mode : Variable
Bit rate : 6 740 kb/s
Maximum bit rate : 18.0 Mb/s
Width : 1 920 pixels
Height : 1 080 pixels
Display aspect ratio : 16:9
Frame rate mode : Constant
Frame rate : 29.970 (30000/1001) FPS
Color space : YUV
Chroma subsampling : 4:2:0
Bit depth : 8 bits
Scan type : Progressive
Bits/(Pixel*Frame) : 0.108
Stream size : 5.18 GiB (95%)
Default : Yes
Forced : No
Color range : Limited
Color primaries : BT.709
Transfer characteristics : BT.709
Matrix coefficients : BT.709

TJPW 8th Tokyo Princess Cup

Audio
ID : 2
Format : AAC LC
Codec ID : A_AAC-2
Duration : 1 h 50 min
Bit rate : 384 kb/s
Channel(s) : 2 channels
Channel layout : L R
Sampling rate : 48.0 kHz
Frame rate : 46.875 FPS
Compression mode : Lossy
Delay relative to video : 8 ms
Stream size : 300 MiB (5%)
Default : Yes
Forced : No

Complete name : Tokyo.Joshi.Pro.2021.07.25.8th.Tokyo.Princess.Cup.Day.4.WEB.h264-LATE.mkv
Format : Matroska
Format version : Version 4
File size : 1.02 GiB
Duration : 1 h 50 min
Overall bit rate mode : Variable
Overall bit rate : 1 331 kb/s

TJPW 8th Tokyo Princess Cup

Video
ID : 1
Format : AVC
Format/Info : Advanced Video
Duration : 1 h 50 min
Bit rate mode : Variable
Bit rate : 1 203 kb/s
Maximum bit rate : 4 000 kb/s
Width : 960 pixels
Height : 540 pixels
Display aspect ratio : 16:9
Frame rate mode : Constant
Frame rate : 29.970 (30000/1001) FPS
Color space : YUV
Chroma subsampling : 4:2:0
Bit depth : 8 bits
Scan type : Progressive
Bits/(Pixel*Frame) : 0.077
Stream size : 947 MiB (90%)
Default : Yes
Forced : No
Color range : Limited
Color primaries : BT.709
Transfer characteristics : BT.709
Matrix coefficients : BT.709

TJPW 8th Tokyo Princess Cup

Audio
ID : 2
Format : AAC LC
Format/Info : Advanced Audio
Codec ID : A_AAC-2
Duration : 1 h 50 min
Bit rate : 125 kb/s
Channel(s) : 2 channels
Channel layout : L R
Sampling rate : 48.0 kHz
Frame rate : 46.875 FPS (1024 SPF)
Compression mode : Lossy
Delay relative to video : 8 ms
Stream size : 98.6 MiB (9%)
Default : Yes
Forced : No

TJPW 8th Tokyo Princess Cup

Complete name : Tokyo.Joshi.Pro.2021.07.25.8th.Tokyo.Princess.Cup.Day.4.720p.WEB.h264-LATE.mkv
Format : Matroska
Format version : Version 4
File size : 2.29 GiB
Duration : 1 h 50 min
Overall bit rate mode : Variable
Overall bit rate : 2 987 kb/s

Video
ID : 1
Format : AVC
Format/Info : Advanced Video
Duration : 1 h 50 min
Bit rate mode : Variable
Bit rate : 2 795 kb/s
Maximum bit rate : 8 000 kb/s
Width : 1 280 pixels
Height : 720 pixels
Display aspect ratio : 16:9
Frame rate mode : Constant
Frame rate : 29.970 (30000/1001) FPS
Color space : YUV
Chroma subsampling : 4:2:0
Bit depth : 8 bits
Scan type : Progressive
Bits/(Pixel*Frame) : 0.101
Stream size : 2.15 GiB (94%)
Default : Yes
Forced : No
Color range : Limited
Color primaries : BT.709
Transfer characteristics : BT.709
Matrix coefficients : BT.709

TJPW 8th Tokyo Princess Cup

Audio
ID : 2
Format : AAC LC
Format/Info : Advanced Audio
Codec ID : A_AAC-2
Duration : 1 h 50 min
Bit rate : 192 kb/s
Channel(s) : 2 channels
Channel layout : L R
Sampling rate : 48.0 kHz
Frame rate : 46.875 FPS (1024 SPF)
Compression mode : Lossy
Delay relative to video : 8 ms
Stream size : 149 MiB (6%)
Default : Yes
Forced : No

Complete name : Tokyo.Joshi.Pro.2021.07.25.8th.Tokyo.Princess.Cup.Day.4.1080p.WEB.h264-LATE.mkv
Format : Matroska
Format version : Version 4
File size : 5.47 GiB
Duration : 1 h 50 min
Overall bit rate mode : Variable
Overall bit rate : 7 124 kb/s\

TJPW 8th Tokyo Princess Cup

Video
ID : 1
Format : AVC
Format/Info : Advanced Video
Duration : 1 h 50 min
Bit rate mode : Variable
Bit rate : 6 740 kb/s
Maximum bit rate : 18.0 Mb/s
Width : 1 920 pixels
Height : 1 080 pixels
Display aspect ratio : 16:9
Frame rate mode : Constant
Frame rate : 29.970 (30000/1001) FPS
Color space : YUV
Chroma subsampling : 4:2:0
Bit depth : 8 bits
Scan type : Progressive
Bits/(Pixel*Frame) : 0.108
Stream size : 5.18 GiB (95%)
Default : Yes
Forced : No
Color range : Limited
Color primaries : BT.709
Transfer characteristics : BT.709
Matrix coefficients : BT.709

TJPW 8th Tokyo Princess Cup

Audio
ID : 2
Format : AAC LC
Codec ID : A_AAC-2
Duration : 1 h 50 min
Bit rate : 384 kb/s
Channel(s) : 2 channels
Channel layout : L R
Sampling rate : 48.0 kHz
Frame rate : 46.875 FPS
Compression mode : Lossy
Delay relative to video : 8 ms
Stream size : 300 MiB (5%)
Default : Yes
Forced : No

Complete name : Tokyo.Joshi.Pro.2021.07.25.8th.Tokyo.Princess.Cup.Day.4.WEB.h264-LATE.mkv
Format : Matroska
Format version : Version 4
File size : 1.02 GiB
Duration : 1 h 50 min
Overall bit rate mode : Variable
Overall bit rate : 1 331 kb/s

TJPW 8th Tokyo Princess Cup

Video
ID : 1
Format : AVC
Format/Info : Advanced Video
Duration : 1 h 50 min
Bit rate mode : Variable
Bit rate : 1 203 kb/s
Maximum bit rate : 4 000 kb/s
Width : 960 pixels
Height : 540 pixels
Display aspect ratio : 16:9
Frame rate mode : Constant
Frame rate : 29.970 (30000/1001) FPS
Color space : YUV
Chroma subsampling : 4:2:0
Bit depth : 8 bits
Scan type : Progressive
Bits/(Pixel*Frame) : 0.077
Stream size : 947 MiB (90%)
Default : Yes
Forced : No
Color range : Limited
Color primaries : BT.709
Transfer characteristics : BT.709
Matrix coefficients : BT.709

TJPW 8th Tokyo Princess Cup

Audio
ID : 2
Format : AAC LC
Format/Info : Advanced Audio
Codec ID : A_AAC-2
Duration : 1 h 50 min
Bit rate : 125 kb/s
Channel(s) : 2 channels
Channel layout : L R
Sampling rate : 48.0 kHz
Frame rate : 46.875 FPS (1024 SPF)
Compression mode : Lossy
Delay relative to video : 8 ms
Stream size : 98.6 MiB (9%)
Default : Yes
Forced : No

TJPW 8th Tokyo Princess Cup

Complete name : Tokyo.Joshi.Pro.2021.07.25.8th.Tokyo.Princess.Cup.Day.4.720p.WEB.h264-LATE.mkv
Format : Matroska
Format version : Version 4
File size : 2.29 GiB
Duration : 1 h 50 min
Overall bit rate mode : Variable
Overall bit rate : 2 987 kb/s

Video
ID : 1
Format : AVC
Format/Info : Advanced Video
Duration : 1 h 50 min
Bit rate mode : Variable
Bit rate : 2 795 kb/s
Maximum bit rate : 8 000 kb/s
Width : 1 280 pixels
Height : 720 pixels
Display aspect ratio : 16:9
Frame rate mode : Constant
Frame rate : 29.970 (30000/1001) FPS
Color space : YUV
Chroma subsampling : 4:2:0
Bit depth : 8 bits
Scan type : Progressive
Bits/(Pixel*Frame) : 0.101
Stream size : 2.15 GiB (94%)
Default : Yes
Forced : No
Color range : Limited
Color primaries : BT.709
Transfer characteristics : BT.709
Matrix coefficients : BT.709

TJPW 8th Tokyo Princess Cup

Audio
ID : 2
Format : AAC LC
Format/Info : Advanced Audio
Codec ID : A_AAC-2
Duration : 1 h 50 min
Bit rate : 192 kb/s
Channel(s) : 2 channels
Channel layout : L R
Sampling rate : 48.0 kHz
Frame rate : 46.875 FPS (1024 SPF)
Compression mode : Lossy
Delay relative to video : 8 ms
Stream size : 149 MiB (6%)
Default : Yes
Forced : No

Complete name : Tokyo.Joshi.Pro.2021.07.25.8th.Tokyo.Princess.Cup.Day.4.1080p.WEB.h264-LATE.mkv
Format : Matroska
Format version : Version 4
File size : 5.47 GiB
Duration : 1 h 50 min
Overall bit rate mode : Variable
Overall bit rate : 7 124 kb/s\

TJPW 8th Tokyo Princess Cup

Video
ID : 1
Format : AVC
Format/Info : Advanced Video
Duration : 1 h 50 min
Bit rate mode : Variable
Bit rate : 6 740 kb/s
Maximum bit rate : 18.0 Mb/s
Width : 1 920 pixels
Height : 1 080 pixels
Display aspect ratio : 16:9
Frame rate mode : Constant
Frame rate : 29.970 (30000/1001) FPS
Color space : YUV
Chroma subsampling : 4:2:0
Bit depth : 8 bits
Scan type : Progressive
Bits/(Pixel*Frame) : 0.108
Stream size : 5.18 GiB (95%)
Default : Yes
Forced : No
Color range : Limited
Color primaries : BT.709
Transfer characteristics : BT.709
Matrix coefficients : BT.709

TJPW 8th Tokyo Princess Cup

Audio
ID : 2
Format : AAC LC
Codec ID : A_AAC-2
Duration : 1 h 50 min
Bit rate : 384 kb/s
Channel(s) : 2 channels
Channel layout : L R
Sampling rate : 48.0 kHz
Frame rate : 46.875 FPS
Compression mode : Lossy
Delay relative to video : 8 ms
Stream size : 300 MiB (5%)
Default : Yes
Forced : No

Complete name : Tokyo.Joshi.Pro.2021.07.25.8th.Tokyo.Princess.Cup.Day.4.WEB.h264-LATE.mkv
Format : Matroska
Format version : Version 4
File size : 1.02 GiB
Duration : 1 h 50 min
Overall bit rate mode : Variable
Overall bit rate : 1 331 kb/s

TJPW 8th Tokyo Princess Cup

Video
ID : 1
Format : AVC
Format/Info : Advanced Video
Duration : 1 h 50 min
Bit rate mode : Variable
Bit rate : 1 203 kb/s
Maximum bit rate : 4 000 kb/s
Width : 960 pixels
Height : 540 pixels
Display aspect ratio : 16:9
Frame rate mode : Constant
Frame rate : 29.970 (30000/1001) FPS
Color space : YUV
Chroma subsampling : 4:2:0
Bit depth : 8 bits
Scan type : Progressive
Bits/(Pixel*Frame) : 0.077
Stream size : 947 MiB (90%)
Default : Yes
Forced : No
Color range : Limited
Color primaries : BT.709
Transfer characteristics : BT.709
Matrix coefficients : BT.709

TJPW 8th Tokyo Princess Cup

Audio
ID : 2
Format : AAC LC
Format/Info : Advanced Audio
Codec ID : A_AAC-2
Duration : 1 h 50 min
Bit rate : 125 kb/s
Channel(s) : 2 channels
Channel layout : L R
Sampling rate : 48.0 kHz
Frame rate : 46.875 FPS (1024 SPF)
Compression mode : Lossy
Delay relative to video : 8 ms
Stream size : 98.6 MiB (9%)
Default : Yes
Forced : No

TJPW 8th Tokyo Princess Cup

Complete name : Tokyo.Joshi.Pro.2021.07.25.8th.Tokyo.Princess.Cup.Day.4.720p.WEB.h264-LATE.mkv
Format : Matroska
Format version : Version 4
File size : 2.29 GiB
Duration : 1 h 50 min
Overall bit rate mode : Variable
Overall bit rate : 2 987 kb/s

Video
ID : 1
Format : AVC
Format/Info : Advanced Video
Duration : 1 h 50 min
Bit rate mode : Variable
Bit rate : 2 795 kb/s
Maximum bit rate : 8 000 kb/s
Width : 1 280 pixels
Height : 720 pixels
Display aspect ratio : 16:9
Frame rate mode : Constant
Frame rate : 29.970 (30000/1001) FPS
Color space : YUV
Chroma subsampling : 4:2:0
Bit depth : 8 bits
Scan type : Progressive
Bits/(Pixel*Frame) : 0.101
Stream size : 2.15 GiB (94%)
Default : Yes
Forced : No
Color range : Limited
Color primaries : BT.709
Transfer characteristics : BT.709
Matrix coefficients : BT.709

TJPW 8th Tokyo Princess Cup

Audio
ID : 2
Format : AAC LC
Format/Info : Advanced Audio
Codec ID : A_AAC-2
Duration : 1 h 50 min
Bit rate : 192 kb/s
Channel(s) : 2 channels
Channel layout : L R
Sampling rate : 48.0 kHz
Frame rate : 46.875 FPS (1024 SPF)
Compression mode : Lossy
Delay relative to video : 8 ms
Stream size : 149 MiB (6%)
Default : Yes
Forced : No

Complete name : Tokyo.Joshi.Pro.2021.07.25.8th.Tokyo.Princess.Cup.Day.4.1080p.WEB.h264-LATE.mkv
Format : Matroska
Format version : Version 4
File size : 5.47 GiB
Duration : 1 h 50 min
Overall bit rate mode : Variable
Overall bit rate : 7 124 kb/s\

TJPW 8th Tokyo Princess Cup

Video
ID : 1
Format : AVC
Format/Info : Advanced Video
Duration : 1 h 50 min
Bit rate mode : Variable
Bit rate : 6 740 kb/s
Maximum bit rate : 18.0 Mb/s
Width : 1 920 pixels
Height : 1 080 pixels
Display aspect ratio : 16:9
Frame rate mode : Constant
Frame rate : 29.970 (30000/1001) FPS
Color space : YUV
Chroma subsampling : 4:2:0
Bit depth : 8 bits
Scan type : Progressive
Bits/(Pixel*Frame) : 0.108
Stream size : 5.18 GiB (95%)
Default : Yes
Forced : No
Color range : Limited
Color primaries : BT.709
Transfer characteristics : BT.709
Matrix coefficients : BT.709

TJPW 8th Tokyo Princess Cup

Audio
ID : 2
Format : AAC LC
Codec ID : A_AAC-2
Duration : 1 h 50 min
Bit rate : 384 kb/s
Channel(s) : 2 channels
Channel layout : L R
Sampling rate : 48.0 kHz
Frame rate : 46.875 FPS
Compression mode : Lossy
Delay relative to video : 8 ms
Stream size : 300 MiB (5%)
Default : Yes
Forced : No

Complete name : Tokyo.Joshi.Pro.2021.07.25.8th.Tokyo.Princess.Cup.Day.4.WEB.h264-LATE.mkv
Format : Matroska
Format version : Version 4
File size : 1.02 GiB
Duration : 1 h 50 min
Overall bit rate mode : Variable
Overall bit rate : 1 331 kb/s

TJPW 8th Tokyo Princess Cup

Video
ID : 1
Format : AVC
Format/Info : Advanced Video
Duration : 1 h 50 min
Bit rate mode : Variable
Bit rate : 1 203 kb/s
Maximum bit rate : 4 000 kb/s
Width : 960 pixels
Height : 540 pixels
Display aspect ratio : 16:9
Frame rate mode : Constant
Frame rate : 29.970 (30000/1001) FPS
Color space : YUV
Chroma subsampling : 4:2:0
Bit depth : 8 bits
Scan type : Progressive
Bits/(Pixel*Frame) : 0.077
Stream size : 947 MiB (90%)
Default : Yes
Forced : No
Color range : Limited
Color primaries : BT.709
Transfer characteristics : BT.709
Matrix coefficients : BT.709

TJPW 8th Tokyo Princess Cup

Audio
ID : 2
Format : AAC LC
Format/Info : Advanced Audio
Codec ID : A_AAC-2
Duration : 1 h 50 min
Bit rate : 125 kb/s
Channel(s) : 2 channels
Channel layout : L R
Sampling rate : 48.0 kHz
Frame rate : 46.875 FPS (1024 SPF)
Compression mode : Lossy
Delay relative to video : 8 ms
Stream size : 98.6 MiB (9%)
Default : Yes
Forced : No

TJPW 8th Tokyo Princess Cup

 

[collapse]

 

 

https://dx-tv.com/

You May Also Like

Leave a Reply

Your email address will not be published. Required fields are marked *

This site uses Akismet to reduce spam. Learn how your comment data is processed.