PWG Battle Of Los Angeles [ BOLA 2019 ] Night 2

Watch PWG Battle Of Los Angeles [ BOLA 2019 ] Night 2 DX-TV

 

PWG Battle Of Los Angeles

 

PWG Battle Of Los Angeles 2019

 

 

 

 

PWG Battle Of Los Angeles [ BOLA 2019 ] Night 2

Complete name : pwg-2019bola-night2.mp4
Format : MPEG-4
Format profile : Base Media
Codec ID : mp42
File size : 3.66 GiB
Duration : 2 h 37 min
Overall bit rate mode : Variable
Overall bit rate : 3 323 kb/s

Video
ID : 1
Format : AVC
Duration : 2 h 37 min
Bit rate mode : Variable
Bit rate : 3 001 kb/s
Maximum bit rate : 5 000 kb/s
Width : 1 280 pixels
Height : 720 pixels
Display aspect ratio : 16:9
Frame rate mode : Constant
Frame rate : 29.970 (30000/1001) FPS
Standard : NTSC
Color space : YUV
Chroma subsampling : 4:2:0
Bit depth : 8 bits
Scan type : Progressive
Bits/(Pixel*Frame) : 0.109
Stream size : 3.30 GiB (90%)
Language : English
Color range : Limited
Color primaries : BT.709
Transfer characteristics : BT.709
Matrix coefficients : BT.709
Codec configuration box : avcC

Audio
ID : 2
Format : AAC LC
Codec ID : mp4a-40-2
Duration : 2 h 37 min
Source duration : 2 h 37 min
Bit rate mode : Variable
Bit rate : 317 kb/s
Maximum bit rate : 459 kb/s
Channel(s) : 2 channels
Channel layout : L R
Sampling rate : 48.0 kHz
Frame rate : 46.875 FPS (1024 SPF)
Compression mode : Lossy
Stream size : 358 MiB (10%)
Source stream size : 358 MiB (10%)
Language : English

 

PWG Battle of Los Angeles Night 2 9/20/19 from the Globe Theater in Los Angeles, CA.

 

  1. Battle of Los Angeles First Round
    Joey Janela vs. Mick Moretti
  2. Battle of Los Angeles First Round
    Jake Atlas vs. Jungle Boy
  3. Battle of Los Angeles First Round
    Rey Fenix vs. Aramis
  4. The Rascalz (Zachary Wentz & Dezmond Xavier) vs. A-Kid & Kyle Fletcher
  5. Battle of Los Angeles First Round
    Bandido vs. Puma King
  6. Battle of Los Angeles First Round
    Penta El Zero M vs. Tony Deppen
  7. Battle of Los Angeles First Round
    David Starr vs. Orange Cassidy
  8. Jonathan Gresham & Daisuke Sekimoto vs. Jeff Cobb & Brody King

 

 

Watch online

 

 

Server 1

 

 

watch now

 

 

 

PWG Battle Of Los Angeles [ BOLA 2019 ] Night 2

 

 

 

Uploaded By Site DX-TV.com

 

 

Download with premium account Links 

 

 

Keep2Share

 

 

nitroflare.com

 

 

rapidgator.net

 

 

uploadgig.com

 

 

 

dx-tv.com

 

Leave a Reply

Your email address will not be published. Required fields are marked *

This site uses Akismet to reduce spam. Learn how your comment data is processed.