PWG Battle Of Los Angeles [ BOLA 2019 ] Night 1

Watch PWG Battle Of Los Angeles [ BOLA 2019 ] Night 1 DX-TV

 

PWG Battle Of Los Angeles

 

PWG Battle Of Los Angeles 2019

 

Battle Of Los Angeles

 

 

PWG Battle Of Los Angeles [ BOLA 2019 ] Night 1

 

 

 

Complete name : pwg-2019bola-night1.mp4
Format : MPEG-4
Format profile : Base Media
File size : 3.63 GiB
Duration : 2 h 12 min
Overall bit rate mode : Variable
Overall bit rate : 3 923 kb/s

Video
ID : 1
Format : AVC
Duration : 2 h 12 min
Source duration : 2 h 12 min
Bit rate mode : Variable
Bit rate : 3 601 kb/s
Maximum bit rate : 5 000 kb/s
Width : 1 280 pixels
Height : 720 pixels
Display aspect ratio : 16:9
Frame rate mode : Constant
Frame rate : 29.970 (30000/1001) FPS
Standard : NTSC
Color space : YUV
Chroma subsampling : 4:2:0
Bit depth : 8 bits
Scan type : Progressive
Bits/(Pixel*Frame) : 0.130
Stream size : 3.33 GiB (92%)
Source stream size : 3.33 GiB (92%)
Language : English
Color range : Limited
Color primaries : BT.709
Transfer characteristics : BT.709
Matrix coefficients : BT.709
Codec configuration box : avcC

Audio
ID : 2
Format : AAC LC
Duration : 2 h 12 min
Source duration : 2 h 12 min
Bit rate mode : Variable
Bit rate : 317 kb/s
Maximum bit rate : 452 kb/s
Channel(s) : 2 channels
Channel layout : L R
Sampling rate : 48.0 kHz
Frame rate : 46.875 FPS (1024 SPF)
Compression mode : Lossy
Stream size : 301 MiB (8%)
Source stream size : 301 MiB (8%)
Language : English

 

PWG Battle of Los Angeles Night 1 9/19/19from the Globe Theater in Los Angeles, CA

 

PWG Battle Of Los Angeles [ BOLA 2019 ] Night 1

 

  1. Battle of Los Angeles First Round
    A-Kid vs. Lucky Kid
  2. Battle of Los Angeles First Round
    Brody King vs. Caveman Ugg
  3. Battle of Los Angeles First Round
  4. Dragon Lee vs. Rey Horus
  5. Joey Janela & Alex Zayne vs. Blake Christian & Tony Deppen
  6. Battle of Los Angeles First Round
    Darby Allin vs. Black Taurus
  7. Battle of Los Angeles First Round
    Jonathan Gresham vs. Artemis Spencer
  8. Battle of Los Angeles First Round
    Jeff Cobb vs. Daisuke Sekimoto
  9. Lucha Brothers (Rey Fenix & Penta El Zero M) vs. MexaBlood (Bandido & Flamita)

 

 

 

Watch online

 

 

Server 1

 

 

watch now

 

 

 

PWG Battle Of Los Angeles [ BOLA 2019 ] Night 1 1

 

 

 

Uploaded By Site DX-TV.com

 

 

Download with premium account Links 

 

 

Keep2Share

 

 

nitroflare.com

 

 

rapidgator.net

 

 

uploadgig.com

 

dx-tv.com

 

Leave a Reply

Your email address will not be published. Required fields are marked *

This site uses Akismet to reduce spam. Learn how your comment data is processed.