PWG Battle Of Los Angeles [BOLA 2019] Night 3

Watch PWG Battle Of Los Angeles [BOLA 2019] Night 3 DX-TV

 

PWG Battle Of Los Angeles 2019

 

PWG Battle Of Los Angeles

 

 

PWG Battle Of Los Angeles [BOLA 2019] Night 3

 

 

 

Complete name : pwg-2019bola-night3.mp4
Format : MPEG-4
Format profile : Base Media
Codec ID : mp42
File size : 3.69 GiB
Duration : 3 h 28 min
Overall bit rate mode : Variable
Overall bit rate : 2 534 kb/s

Video
ID : 1
Format : AVC
Duration : 3 h 28 min
Bit rate mode : Variable
Bit rate : 2 212 kb/s
Maximum bit rate : 5 000 kb/s
Width : 1 280 pixels
Height : 720 pixels
Display aspect ratio : 16:9
Frame rate mode : Constant
Frame rate : 29.970 (30000/1001) FPS
Standard : NTSC
Color space : YUV
Chroma subsampling : 4:2:0
Bit depth : 8 bits
Scan type : Progressive
Bits/(Pixel*Frame) : 0.080
Stream size : 3.22 GiB (87%)
Language : English
Color range : Limited
Color primaries : BT.709
Transfer characteristics : BT.709
Matrix coefficients : BT.709
Codec configuration box : avcC

Audio
ID : 2
Format : AAC LC
Codec ID : mp4a-40-2
Duration : 3 h 28 min
Source duration : 3 h 28 min
Bit rate mode : Variable
Bit rate : 317 kb/s
Maximum bit rate : 453 kb/s
Channel(s) : 2 channels
Channel layout : L R
Sampling rate : 48.0 kHz
Frame rate : 46.875 FPS (1024 SPF)
Compression mode : Lossy
Stream size : 473 MiB (13%)
Source stream size : 473 MiB (13%)
Language : English

 

PWG Battle of Los Angeles Night 3 9/22/19  from the Globe Theater in Los Angeles, CA.

 

PWG Battle Of Los Angeles Night 3

 

  1. Battle of Los Angeles Quarter Finals Match
    Dragon Lee vs. Jake Atlas
  2. Battle of Los Angeles Quarter Finals Match
    Bandido vs. Brody King
  3. Battle of Los Angeles Quarter Finals Match
    Jonathan Gresham vs. A-Kid
  4. Battle of Los Angeles Quarter Finals Match
    Joey Janela vs. Rey Fenix
  5. Battle of Los Angeles Quarter Finals Match
    Darby Allin vs. Penta El Zero M
  6. Battle of Los Angeles Quarter Finals Match
    David Starr vs. Jeff Cobb
  7. Dark Order (Evil Uno & Stu Grayson) vs. Rey Horus & Aramis
  8. Battle of Los Angeles Semi Finals Match
    Jonathan Gresham vs. Joey Janela
  9. Battle of Los Angeles Semi Finals Match
    Bandido vs. Dragon Lee
  10. Battle of Los Angeles Semi Finals Match
    David Starr vs. Darby Allin
  11. Caveman Ugg, Orange Cassidy, Jungle Boy, Artemis Spencer and Paris DeSilva vs. Mick Moretti, Lucky Kid, Tony Deppen, Black Taurus and Kyle Fletcher
  12. Battle of Los Angeles Finals Match
    Bandido vs. David Starr vs. Jonathan Gresham

 

 

Watch online

 

 

Server 1

 

 

watch now

 

 

 

PWG Battle Of Los Angeles [BOLA 2019] Night 3

 

 

 

Uploaded By Site DX-TV.com

 

 

Download with premium account Links 

 

 

Keep2Share

 

 

nitroflare.com

 

 

rapidgator.net

 

 

uploadgig.com

 

 

 

dx-tv.com