NJPW Strong Japanese Ep 9 2020 10 02 720p

Watch NJPW Strong Japanese Ep 9 2020 10 02 720p DX-TV

 

NJPW Strong

 

 NJPW Strong

 

NJPW Strong Japanese Ep 9 2020 10 02 720p

 

Finish your week STRONG on the device of your choosing with FITE

NJPW STRONG continues to be a smash Friday nights on NJPW World. Now, as G1 Climax 30 sees the very best of heavyweight talent from all over the world do battle in Japan, the action on STRONG stays hot, as Lion’s Break Crown shows off the stars of the future!

Eight of the very best young stars do battle in one hotly contested tournament, while Jeff Cobb, Jay White and KENTA look to pursue success on STRONG and the G1 at the same time!  

Starting this Friday, fans will have another option for watching Lion’s Break Collision, as a new series bundle comes to FITE TV! Each week of the best hour of pure pro-wrestling in the world will be available as a great binge watching value bundle pack!

NJPW Strong

Complete name : NJPW.2020.10.02.Strong.Episode.9.JAPANESE.720p.WEB.h264-LATE.mkv
Format : Matroska
Format version : Version 4
File size : 906 MiB
Duration : 1 h 2 min
Overall bit rate : 2 032 kb/s

NJPW Strong

Video
ID : 1
Format : AVC
Duration : 1 h 2 min
Bit rate : 1 904 kb/s
Width : 1 280 pixels
Height : 720 pixels
Display aspect ratio : 16:9
Frame rate mode : Constant
Frame rate : 30.000 FPS
Color space : YUV
Chroma subsampling : 4:2:0
Bit depth : 8 bits
Scan type : Progressive
Bits/(Pixel*Frame) : 0.069
Stream size : 849 MiB (94%)

NJPW Strong

Audio
ID : 2
Format : AAC LC
Format/Info : Advanced Audio
Codec ID : A_AAC-2
Duration : 1 h 2 min
Bit rate : 125 kb/s
Channel(s) : 2 channels
Channel layout : L R
Sampling rate : 44.1 kHz
Frame rate : 43.066 FPS (1024 SPF)
Compression mode : Lossy
Delay relative to video : -23 ms
Stream size : 55.7 MiB (6%)
Language : English
Default : Yes
Forced : No

 

NJPW Strong Japanese Ep 9 2020 10 02 720p

 

 

 

 

Watch online

 

 

 

 

 

Server 1

 

 

 

 

watch now

 

 

 

 

Server-2

 

 

 

NJPW Strong

 

 

 

 

Server-3

 

 

 

watch now

 

 

 

 

Uploaded By Site DX-TV.com

 

 

 

 

Download Free Links with normal and high Speed [ more 14 hosts ]  

 

 

http://shrt10.com/D5eLmx

http://shrt10.com/KNzixM
http://shrt10.com/JlZVYF9Y
http://shrt10.com/ovpk8KTyH
http://shrt10.com/XklW0m
http://shrt10.com/YfcPvGBeO
http://shrt10.com/ww22Bvca
http://shrt10.com/LWTVBG
http://shrt10.com/WMm3Obv7Y
http://shrt10.com/J1dIysAS
http://shrt10.com/BFsedhV6P
http://shrt10.com/DtQiqvnMf

 

 

 

 

Download Links with premium High Speed   

 

 

 

 

nitroflare.com

 

 

 

rapidgator.net

 

 

 

uploaded.net

 

 

 

uploadgig.com

 

 

 

 

 

dx-tv.com

 

urlfree.net

Leave a Reply

Your email address will not be published. Required fields are marked *

This site uses Akismet to reduce spam. Learn how your comment data is processed.