NJPW Strong English Ep 9 2020 10 02 Free Online

Watch NJPW Strong English Ep 9 2020 10 02 Free Online DX-TV

 

NJPW English

 

 NJPW Enlish
 


 

 

NJPW Strong English Ep 9 2020 10 02 Free Online

 

Complete name : NJPW.2020.10.02.Strong.Episode.9.ENGLISH.720p.WEB.h264-LATE.mkv
Format : Matroska
Format version : Version 4
File size : 905 MiB
Duration : 1 h 2 min
Overall bit rate : 2 032 kb/s

NJPW English

Video
ID : 1
Format : AVC
Duration : 1 h 2 min
Bit rate : 1 904 kb/s
Width : 1 280 pixels
Height : 720 pixels
Display aspect ratio : 16:9
Frame rate mode : Constant
Frame rate : 30.000 FPS
Color space : YUV
Chroma subsampling : 4:2:0
Bit depth : 8 bits
Scan type : Progressive
Bits/(Pixel*Frame) : 0.069
Stream size : 849 MiB (94%)

NJPW English

Audio
ID : 2
Format : AAC LC
Format/Info : Advanced Audio
Codec ID : A_AAC-2
Duration : 1 h 2 min
Bit rate : 125 kb/s
Channel(s) : 2 channels
Channel layout : L R
Sampling rate : 44.1 kHz
Frame rate : 43.066 FPS (1024 SPF)
Compression mode : Lossy
Delay relative to video : -23 ms
Stream size : 55.7 MiB (6%)
Language : English
Default : Yes
Forced : No

NJPW English

NJPW STRONG continues to be a smash Friday nights on NJPW World. Now, as G1 Climax 30 sees the very best of heavyweight talent from all over the world do battle in Japan, the action on STRONG stays hot, as Lion’s Break Crown shows off the stars of the future!

Eight of the very best young stars do battle in one hotly contested tournament, while Jeff Cobb, Jay White and KENTA look to pursue success on STRONG and the G1 at the same time!  

Starting this Friday, fans will have another option for watching Lion’s Break Collision, as a new series bundle comes to FITE TV! Each week of the best hour of pure pro-wrestling in the world will be available as a great binge watching value bundle pack!

 

NJPW Strong Japanese Ep 9 2020 10 02 720p

 

 

 

 

Watch online

 

 

 

 

 

Server 1

 

 

 

 

watch now

 

 

 

 

Server-2

 

 

 

watch now

 

 

 

 

Server-3

 

 

 

NJPW English

 

 

 

 

Uploaded By Site DX-TV.com

 

 

 

 

Download Free Links with normal and high Speed [ more 14 hosts ]  

 

 

 

 

http://shrt10.com/Gz2DYo7tW
http://shrt10.com/3foBWFv
http://shrt10.com/JLeTR
http://shrt10.com/Vpsks
http://shrt10.com/Im5sXIdsl
http://shrt10.com/LzlqK
http://shrt10.com/s5H3i7ABs
http://shrt10.com/VY3Yw1XNU
http://shrt10.com/5bc4W
http://shrt10.com/dGJjhYcGW
http://shrt10.com/ziZ1o

 

 

 

Download Links with premium High Speed   

 

 

 

nitroflare.com

 

 

 

rapidgator.net

 

 

 

uploaded.net

 

 

 

uploadgig.com

 

 

 

 

 

dx-tv.com

 

urlfree.net

Leave a Reply

Your email address will not be published. Required fields are marked *

This site uses Akismet to reduce spam. Learn how your comment data is processed.