GCW Ask MDK 2 Free Online Shoot Interview

Watch GCW Ask MDK 2 Shoot Interview Free Online DX-TV

 

GCW Free Online

 

 GCW Free Online

 

GCW Ask MDK 2 Free Online Shoot Interview

 

 

With the US indies at a level of competition and awareness not seen since the initial indie revolution of the early 2000s, there’s arguably no US promotion that has come as far in the past five years as New Jersey’s Game Changer Wrestling (GCW). In the early 2000s, indie promotions like Ring of Honor (ROH), Total Nonstop Action (TNA), Major League Wrestling (MLW), Combat Zone Wrestling (CZW), CHIKARA, and Pro Wrestling Guerrilla (PWG) helped kickstart a revolution of opportunities following the demise of WCW and ECW in 2001, with several of them (TNA, ROH, and MLW) eventually becoming major promotions following acquisitions from larger corporate backing and television deals. Since then, other indies have risen up to create a strong presence in regional territories, like AAW Pro in Chicago, Absolute Intense Wrestling (AIW) in Ohio, DEFY Wrestling in Washington, PCW ULTRA in California, and Beyond Wrestling in New England.

GCW Free Online

Complete name : GCW – AskMDK2.mp4
Format : MPEG-4
Format profile : Base Media
Codec ID : isom
File size : 1.33 GiB
Duration : 1 h 53 min
Overall bit rate : 1 677 kb/s
Writing application : Lavf58.51.101

GCW Free Online

Video
ID : 1
Format : AVC
Duration : 1 h 53 min
Source duration : 1 h 53 min
Bit rate : 1 536 kb/s
Width : 1 280 pixels
Height : 720 pixels
Display aspect ratio : 16:9
Frame rate mode : Variable
Frame rate : 29.970 (29970/1000) FPS
Color space : YUV
Chroma subsampling : 4:2:0
Bit depth : 8 bits
Scan type : Progressive
Bits/(Pixel*Frame) : 0.056
Stream size : 1.22 GiB (92%)
Source stream size : 1.22 GiB (92%)

GCW Free Online

Audio
ID : 2
Format : AAC LC
Format/Info : Advanced Audio
Codec ID : mp4a-40-2
Duration : 1 h 53 min
Bit rate mode : Constant
Bit rate : 127 kb/s
Channel(s) : 2 channels
Channel layout : L R
Sampling rate : 48.0 kHz
Frame rate : 46.875 FPS (1024 SPF)
Compression mode : Lossy
Stream size : 103 MiB (8%)
Default : Yes
Alternate group : 1

 

 

 

GCW Ask MDK 2 Free Online Shoot Interview

 

 

 

 

Watch online

 

 

 

 

 

Server 1

 

 

 

 

watch now

 

 

 

 

Server-2

 

 

 

GCW Free Online

 

 

 

 

Server-3

 

 

 

GCW Free Online

 

 

 

 

Uploaded By Site DX-TV.com

 

 

 

 

Download Free Links with normal and high Speed [ more 14 hosts ]  

 

 

 

http://shrt10.com/hQByx0Qb
http://shrt10.com/OsCnd6igl
http://shrt10.com/OHWcS3hd4
http://shrt10.com/mJN9Ur
http://shrt10.com/gKTM8IOt
http://shrt10.com/f9yVzQ
http://shrt10.com/VTaBhK0
http://shrt10.com/KlRlM
http://shrt10.com/a7sen8uH
http://shrt10.com/4uKF96qq
http://shrt10.com/javCQH6
http://shrt10.com/ny9chTu
http://shrt10.com/a09Wev

 

 

 

Download Links with premium High Speed   

 

 

nitroflare.com

 

 

 

rapidgator.net

 

 

 

uploaded.net

 

 

 

uploadgig.com

 

 

 

 

 

dx-tv.com

 

urlfree.net

Leave a Reply

Your email address will not be published. Required fields are marked *

This site uses Akismet to reduce spam. Learn how your comment data is processed.