WWE 205 Live Full Show Online 2020 10 02

Watch WWE 205 Live Full Show Online 2020 10 02 DX-TV

 

WWE 205 Live

 

 WWE 205 Live

WWE 205 Live Full Show Online 2020 10 02

 

 

 

 

Complete name : WWE.205.Live.2020.10.02.REPACK.720p.WEB.h264-HEEL.mp4
Format : MPEG-4
Format profile : Base Media
Codec ID : isom
File size : 1.44 GiB
Duration : 47 min 54 s
Overall bit rate : 4 299 kb/s
Writing application : Lavf58.32.104

WWE 205 Live

Video
ID : 1
Format : AVC
Duration : 47 min 54 s
Bit rate : 4 164 kb/s
Width : 1 280 pixels
Height : 720 pixels
Display aspect ratio : 16:9
Frame rate mode : Variable
Frame rate : 30.000 FPS 
Color space : YUV
Chroma subsampling : 4:2:0
Bit depth : 8 bits
Scan type : Progressive
Bits/(Pixel*Frame) : 0.151
Stream size : 1.39 GiB (97%)
Codec configuration box : avcC

WWE 205 Live

Audio
ID : 2
Format : AAC LC
Format/Info : Advanced
Codec ID : mp4a-40-2
Duration : 47 min 53 s
Bit rate mode : Constant
Bit rate : 125 kb/s
Channel(s) : 2 channels
Channel layout : L R
Sampling rate : 48.0 kHz
Frame rate : 46.875 FPS (1024 SPF)
Compression mode : Lossy
Stream size : 43.0 MiB (3%)
Default : Yes
Alternate group : 1

WWE 205 Live

Text #1
ID : 1-CC1
Format : EIA-608
Muxing mode : SCTE 128 / DTVCC Transport
Muxing mode, more info : Muxed in Video #1
Duration : 47 min 54 s
Bit rate mode : Constant
Stream size : 0.00 Byte (0%)
CaptionServiceName : CC1

Text #2
ID : 1-CC3
Format : EIA-608
Muxing mode : SCTE 128 / DTVCC Transport
Muxing mode, more info : Muxed in Video #1
Duration : 47 min 54 s
Bit rate mode : Constant
Stream size : 0.00 Byte (0%)
CaptionServiceName : CC3

WWE 205 Live

Text #3
ID : 1-1
Format : EIA-708
Muxing mode : SCTE 128 / DTVCC Transport
Muxing mode, more info : Muxed in Video #1
Duration : 47 min 54 s
Bit rate mode : Constant
Stream size : 0.00 Byte (0%)

Text #4
ID : 1-3
Format : EIA-708
Muxing mode : SCTE 128 / DTVCC Transport
Muxing mode, more info : Muxed in Video #1
Duration : 47 min 54 s
Bit rate mode : Constant
Stream size : 0.00 Byte (0%)

WWE 205 Live

Text #5
ID : 1-4
Format : EIA-708
Muxing mode : SCTE 128 / DTVCC Transport
Muxing mode, more info : Muxed in Video #1
Duration : 47 min 54 s
Bit rate mode : Constant
Stream size : 0.00 Byte (0%)

Text #6
ID : 1-5
Format : EIA-708
Muxing mode : SCTE 128 / DTVCC Transport
Muxing mode, more info : Muxed in Video #1
Duration : 47 min 54 s
Bit rate mode : Constant
Stream size : 0.00 Byte (0%)

WWE 205 Live

Text #7
ID : 1-6
Format : EIA-708
Muxing mode : SCTE 128 / DTVCC Transport
Muxing mode, more info : Muxed in Video #1
Duration : 47 min 54 s
Bit rate mode : Constant
Stream size : 0.00 Byte (0%)

 

 

 

WWE 205 Live Full Show Online 2020 10 02

 

 

 

 

Watch online

 

 

 

 

 

Server 1

 

 

 

 

watch now

 

 

 

 

Server-2

 

 

 

watch now

 

 

 

 

Server-3

 

 

 

watch now

 

 

 

 

Uploaded By Site DX-TV.com

 

 

 

 

Download Free Links with normal and high Speed [ more 15 hosts ]  

 

 

 

http://shrt10.com/gwciVTyr
http://shrt10.com/R3mtz8iD
http://shrt10.com/2ZXfsoE
http://shrt10.com/zBKTR3X
http://shrt10.com/fb9ic0Cg
http://shrt10.com/pjcKS
http://shrt10.com/7tGN3
http://shrt10.com/6vKOWRH
http://shrt10.com/J7q4975
http://shrt10.com/Jm9WRJJZc
http://shrt10.com/KcoXCHT0U
http://shrt10.com/YuGTXYO8

 

 

 

 

Download Links with premium High Speed   

 

 

 

 

nitroflare.com

 

 

 

rapidgator.net

 

 

 

uploaded.net

 

 

 

uploadgig.com

 

 

 

 

 

dx-tv.com

 

urlfree.net

Leave a Reply

Your email address will not be published. Required fields are marked *

This site uses Akismet to reduce spam. Learn how your comment data is processed.