NJPW English G1 Climax 30 Day 7 2020 09 30 720p

Watch NJPW English G1 Climax 30 Day 7 2020 09 30 720p DX-TV

 

G1 Climax 30 English

 

 G1 Climax 30 English

 

NJPW English G1 Climax 30 Day 7 2020 09 30 720p

 

A five way tie atop A Block in Korakuen Hall

 

September 30 saw night seven of G1 Climax 30 and the fourth match of A Block action, ending with   

atop the table with  points while Yujiro Takahashi sat last at zero points.

G1 Climax 30 English

The first group match of the evening saw Minoru Suzuki take on the still winless Yujiro Takahashi. Eager to get going, Yujiro was throwing feet at Suzuki even before the bell, and though the King put him down to the mat, Yujiro took Suzuki to the floor and pursued with some vicious offense. This only served to anger the King however, and Suzuki soon delivered his receipts with a steel chair on the floor. 

G1 Climax 30 English

In ring, Yujiro was able to deliver a fisherman buster to Suzuki, but the NEVER Champion felt as if he had a clear margin, toying with his opponent and baiting him into taking his best swing. That swing came with a lariat from Takahashi, but Suzuki escaped from Miami Shine, and a Pimp Juice attempt was converted into a sleeper hold and Gotch Style Piledriver for a comfortable victory. 

G1 Climax 30 English

Jeff Cobb and Kota Ibushi were next to face off in a hotly anticipated first time meeting. Cobb went to the mat and grappled Ibushi in the early going, bringing him to the ropes on two occasions. With a clear edge in grappling, Cobb felt confident to switch up and try to strike Ibushi, quickly paying for the impudence with a mid kick and standing moonsault. 

G1 Climax 30 English

Complete name : NJPW.2020.09.30.G1.Climax.30.Day.7.ENGLISH.720p.WEB.h264-LATE.mkv
Format : Matroska
Format version : Version 4
File size : 1.95 GiB
Duration : 2 h 19 min
Overall bit rate : 2 004 kb/s

G1 Climax 30 English

Video
ID : 1
Format : AVC
Codec ID : V_MPEG4/ISO/AVC
Duration : 2 h 19 min
Bit rate : 1 904 kb/s
Width : 1 280 pixels
Height : 720 pixels
Display aspect ratio : 16:9
Frame rate mode : Constant
Frame rate : 30.000 FPS
Color space : YUV
Chroma subsampling : 4:2:0
Bit depth : 8 bits
Scan type : Progressive
Bits/(Pixel*Frame) : 0.069
Stream size : 1.86 GiB (95%)

G1 Climax 30 English

Audio
ID : 2
Format : AAC LC
Format/Info : Advanced Audio
Codec ID : A_AAC-2
Duration : 2 h 19 min
Bit rate : 93.9 kb/s
Channel(s) : 2 channels
Channel layout : L R
Sampling rate : 44.1 kHz
Frame rate : 43.066 FPS (1024 SPF)
Compression mode : Lossy
Delay relative to video : -23 ms
Stream size : 93.6 MiB (5%)
Default : Yes
Forced : No

 

 

 

NJPW English G1 Climax 30 Day 6 2020 09 29 720p

 

 

 

 

Watch online

 

 

 

 

 

Server 1

 

 

 

 

watch now

 

 

 

 

Server-2

 

 

 

watch now

 

 

 

 

Server-3

 

 

 

G1 Climax 30 English

 

 

 

 

Uploaded By Site DX-TV.com

 

 

 

 

Download Free Links with normal and high Speed [ more 14 hosts ]  

 

 

 

 

http://shrt10.com/kCYxRtspp
http://shrt10.com/uGFI0C
http://shrt10.com/zbrrRS
http://shrt10.com/1usmrH
http://shrt10.com/aIRSF2zIG
http://shrt10.com/gZUS6Qcs
http://shrt10.com/MQwEU5
http://shrt10.com/8rCKv
http://shrt10.com/uHocf
http://shrt10.com/KqpjIOmr
http://shrt10.com/kMBdtUt
http://shrt10.com/5fpWreONk
http://shrt10.com/c8i8xL

 

 

 

Download Links with premium High Speed   

 

 

 

 

nitroflare.com

 

 

 

rapidgator.net

 

 

 

uploaded.net

 

 

 

uploadgig.com

 

 

 

 

 

dx-tv.com

 

urlfree.net

Leave a Reply

Your email address will not be published. Required fields are marked *

This site uses Akismet to reduce spam. Learn how your comment data is processed.