NJPW English G1 Climax 30 Day 6 2020 09 29 720p

Watch NJPW English G1 Climax 30 Day 6 2020 09 29 720p DX-TV

 

NJPW English G1 Climax 30

 

 NJPW English G1 Climax 30
 


 

 

NJPW English G1 Climax 30 Day 6 2020 09 29 720p

 

tetsuya Naito, Toru Yano  top B Block after action in Korakuen Hall

September 29 saw G1 Climax 30 come to Tokyo for the first time on the tour,

with B Block action ending with Tetsuya Naito and Toru Yano  atop the table on six points, while SANADA lingers at zero. 

First up in block action on the night were YOSHI-HASHI and SANADA battling to each try and break their ducks thus far in the tournament.

NJPW English G1 Climax 30

YOSHI-HASHI scored the first offence of the matchup, controlling SANADA on the mat and unleashing shoulder tackles.

and a tijeras before sending SANADA out to the floor.

Cold Skull responded by sending YOSHI-HASHI to the guardrails though, and used the steel to deliver a Magic Screw on the floor.

Having created a weakness in the neck of his opponent, SANADA set to work,

and threatened Skull End, but YOSHI-HASHI countered with the Bunker Buster to buy some time.

The Headhunter neckbreaker followed, and YOSHI-HASHI looked to follow with a powerbomb,

but a dropkick was the answer from SANADA, and Cold Skull followed with a plancha to the floor. 

NJPW English G1 Climax 30

Complete name : NJPW.2020.09.29.G1.Climax.30.Day.6.ENGLISH.720p.WEB.h264-LATE.mkv
Format : Matroska
Format version : Version 4
File size : 2.01 GiB
Duration : 2 h 23 min
Overall bit rate : 2 009 kb/s

NJPW English G1 Climax 30

Video
ID : 1
Format : AVC
Duration : 2 h 23 min
Bit rate : 1 904 kb/s
Width : 1 280 pixels
Height : 720 pixels
Display aspect ratio : 16:9
Frame rate mode : Constant
Frame rate : 30.000 FPS
Color space : YUV
Chroma subsampling : 4:2:0
Bit depth : 8 bits
Scan type : Progressive
Bits/(Pixel*Frame) : 0.069
Stream size : 1.92 GiB (95%)

NJPW English G1 Climax 30

Audio
ID : 2
Format : AAC LC
Format/Info : Advanced Audio
Codec ID : A_AAC-2
Duration : 2 h 23 min
Bit rate : 93.6 kb/s
Channel(s) : 2 channels
Channel layout : L R
Sampling rate : 44.1 kHz
Frame rate : 43.066 FPS (1024 SPF)
Compression mode : Lossy
Delay relative to video : -23 ms
Stream size : 96.1 MiB (5%)
Default : Yes
Forced : No

 English G1 Climax 30 Day 6 2020 09 29 720p

 

 

 

 

Watch online

 

 

 

 

 

Server 1

 

 

 

 

watch now

 

 

 

 

Server-2

 

 

 

watch now

 

 

 

 

Server-3

 

 

 

NJPW English G1 Climax 30

 

 

 

 

Uploaded By Site DX-TV.com

 

 

 

 

Download Free Links with normal and high Speed [ more 14 hosts ]  

 

 

 

http://shrt10.com/R9nKeuHg
http://shrt10.com/GkVCFg4a
http://shrt10.com/0kK5I
http://shrt10.com/H61Np4R2g
http://shrt10.com/ZARMG1WF
http://shrt10.com/v0NrboAMU
http://shrt10.com/MrVA2PA5
http://shrt10.com/77d5bRLDe
http://shrt10.com/The6iz9

 

 

 

 

Download Links with premium High Speed   

 

 

 

nitroflare.com

 

 

 

rapidgator.net

 

 

 

uploaded.net

 

 

 

uploadgig.com

 

 

 

 

 

dx-tv.com

 

urlfree.net

Leave a Reply

Your email address will not be published. Required fields are marked *

This site uses Akismet to reduce spam. Learn how your comment data is processed.