NJPW English G1 Climax 30 Day 8 2020 10 01 720p

Watch NJPW English G1 Climax 30 Day 8 2020 10 01 720p DX-TV

 

G1 Climax 30

 

 G1 Climax 30
 


 

 

NJPW English G1 Climax 30 Day 8 2020 10 01 720p

 

Naito, Juice, Yano  atop B Block in Nagaoka

 

The G1 moved to SANADA’s home prefecture of Nagaoka on October 1 for night eight of the tour, Cold Skull ending the night by finally stopping Tetsuya Naito’s win streak and his own losing one. Naito, Juice Robinson and Toru Yano are now top of B Block at six points while  Hirooki Goto, YOSHI-HASHI and SANADA sit at the bottom with two.

G1 Climax 30

The first group match of the evening saw Toru Yano try and retain his own perfect record against Juice Robinson. Yano offered Juice the gift of his brand new Tshirt at the start of the match, an ambassador for sportsmanship as well as Noboribetsu. It was all a ruse however, as Yano pulled the shirt over Juice’s eyes before spraying them with alcohol disinfectant for two counts. At ringside, Robinson grabbed Yano’s bottle of cleansing spray, pouring the contents into Yano’s face, but the YouTuber was able to beat the 20 count, taking the corner pad off once back inside. 

G1 Climax 30

Yano’s antics continued to enrage Robinson, and the thief was able to bait Juice outside, where he was waiting with a roll of tape to bind the legs of the former US Champion.  Still, Juice was able to bunny hop to the ring, and deliver a Full Nelson Slam to buy himself enough time to get free. Forced to wrestle, Yano got two from the NU clutch, but ate a right hand, and Juice blocked his Pulp Friction counter to sit down and get the three. 

G1 Climax 30

Complete name : NJPW.2020.10.01.G1.Climax.30.Day.8.ENGLISH.720p.WEB.h264-LATE.mkv
Format : Matroska
Format version : Version 4
File size : 2.08 GiB
Duration : 2 h 28 min
Overall bit rate : 2 010 kb/s

Video
ID : 1
Format : AVC
Duration : 2 h 28 min
Bit rate : 1 904 kb/s
Width : 1 280 pixels
Height : 720 pixels
Display aspect ratio : 16:9
Frame rate mode : Constant
Frame rate : 30.000 FPS
Color space : YUV
Chroma subsampling : 4:2:0
Bit depth : 8 bits
Scan type : Progressive
Bits/(Pixel*Frame) : 0.069
Stream size : 1.97 GiB (95%)

G1 Climax 30

Audio
ID : 2
Format : AAC LC
Format/Info : Advanced Audio
Codec ID : A_AAC-2
Duration : 2 h 28 min
Bit rate : 101 kb/s
Channel(s) : 2 channels
Channel layout : L R
Sampling rate : 44.1 kHz
Frame rate : 43.066 FPS (1024 SPF)
Compression mode : Lossy
Delay relative to video : -23 ms
Stream size : 108 MiB (5%)
Default : Yes
Forced : No

 

 

 

NJPW English G1 Climax 30 Day 8 2020 10 01 720p

 

Watch online

 

 

Server 1

 

 

 

 

watch now

G1 Climax 30

 

 

 

Server-2

 

 

 

G1 Climax 30

 

 

 

 

Server-3

 

 

 

watch now

 

 

 

 

Uploaded By Site DX-TV.com

 

 

 

 

Download Free Links with normal and high Speed [ more 14 hosts ]  

 

 

 

http://shrt10.com/ntwP6s
http://shrt10.com/zF0zsw
http://shrt10.com/Bt05Rj
http://shrt10.com/vk3jz3w
http://shrt10.com/nW2gq1UTz
http://shrt10.com/umjO8ftMO
http://shrt10.com/fxPvR
http://shrt10.com/WgdeCKmZ2
http://shrt10.com/ZoW6Ng90
http://shrt10.com/7s1QGZB

 

 

 

 

Download Links with premium High Speed   

 

 

 

nitroflare.com

 

 

 

rapidgator.net

 

 

 

uploaded.net

 

 

 

uploadgig.com

 

 

 

 

 

dx-tv.com

 

urlfree.net

Leave a Reply

Your email address will not be published. Required fields are marked *

This site uses Akismet to reduce spam. Learn how your comment data is processed.