NJPW English G1 Climax 30 Day 15 2020 Full Show Online

Watch NJPW English G1 Climax 30 Day 15 720p Full Show Online DX-TV

 

NJPW English G1 Climax 30 Day 15

 

 NJPW English G1 Climax 30 Day 15
 


 

 

NJPW English G1 Climax 30 Day 15 2020 Full Show Online

 

 

The power of Mr Athletic soon shone through though,

and Cobb launched Ospreay across the ring with a belly to belly in response to a springboard attempt.

Toying with ospreay Cobb ragdolled his opponent before Ospreay was able to create more distance with a handspring.

Using his go to speed, Ospreay avoided a Gachimuchi Moonsault and hit a shooting star for two.

An Asiatic spike from Cobb though, and the Gachimuchi connected for Cobb giving him his own near fall. 

NJPW English G1 Climax 30 Day 15

Tour of the Islands wasn’t forthcoming for Cobb, as Ospreay countered into Code Red for two.

More high speed counters kept frustrating the Olympian.

who was caught with a standing Spanish Fly and springboard 450 for a near fall at the ten minute mark.

Cobb prevented an Os Cutter attempt though and hit F5000.

but a second counter to the move resulted in Ospreay using the corner to hit the move instead.

A Storm breaker was countered into Croyt’s Wrath and Tour of the islands followed for Cobb’s fourth win. 

NJPW English G1 Climax 30 Day 15

Complete name : NJPW.2020.10.13.G1.Climax.30.Day.15.ENGLISH.720p.WEB.h264-funkytown.mp4
Format : MPEG-4
Format profile : Base Media
Codec ID : isom (
File size : 2.27 GiB
Duration : 2 h 39 min
Overall bit rate : 2 038 kb/s

NJPW English G1 Climax 30 Day 15

Video
ID : 1
Format : AVC
Duration : 2 h 39 min
Bit rate : 1 904 kb/s
Width : 1 280 pixels
Height : 720 pixels
Display aspect ratio : 16:9
Frame rate mode : Constant
Frame rate : 30.000 FPS
Color space : YUV
Chroma : 4:2:0
Bit depth : 8 bits
Scan type : Progressive
Bits/(Pixel*Frame) : 0.069
Stream size : 2.12 GiB (93%)

NJPW English G1 Climax 30 Day 15

Audio
ID : 2
Format : AAC LC
Format/Info : Advanced Audio
Codec ID : mp4a-40-2
Duration : 2 h 39 min
Bit rate mode : Constant
Bit rate : 126 kb/s
Channel(s) : 2 channels
Channel layout : L R
Sampling rate : 44.1 kHz
Frame rate : 43.066 FPS
Compression mode : Lossy
Stream size : 143 MiB (6%)
Language : English
Default : Yes
Alternate group : 1

 

NJPW English G1 Climax 30 Day 15 2020 Full Show Online

 

 

Watch online

 

 

Server 1

 

 

 

 

watch now

 

 

 

 

Server-2

 

 

 

NJPW English G1 Climax 30 Day 15

 

 

 

 

Server-3

 

 

 

watch now

 

 

 

 

Uploaded By Site DX-TV.com

 

 

 

 

Download Free Links with normal and high Speed [ more 14 hosts ]  

 

 

 

http://shrt10.com/2hiAd
http://shrt10.com/7nQYRos
http://shrt10.com/dUXN3Jc
http://shrt10.com/249h5jWe
http://shrt10.com/Cl5RQK1x
http://shrt10.com/Mzho3Zz3A
http://shrt10.com/NGaV37NW
http://shrt10.com/IZKFG
http://shrt10.com/FIreUswzr

 

 

 

 

Download Links with premium High Speed   

 

 

 

dropapk.to

 

 

 

nitroflare.com

 

 

 

rapidgator.net

 

 

 

uploaded.net

 

 

 

uploadgig.com

 

 

 

 

 

dx-tv.com

 

urlfree.net

Leave a Reply

Your email address will not be published. Required fields are marked *

This site uses Akismet to reduce spam. Learn how your comment data is processed.