Download NXT Free 2020 10 14 WWE Full Show 1080p

Watch Download NXT Free 2020 10 14 WWE Full Show 1080p HDTV Star DX-TV

 

Download NXT Free

 

 Download NXT Free
 


 

 

Download NXT Free 2020 10 14 WWE Full Show 1080p

 

Imperium def. Killian Dain & Drake Maverick

Killian Dain & Drake Maverick are still anything but on the same page,

and they were outsmarted in this one by the much more experienced team of Marcel Barthel & Fabian Aichner, with Maverick falling victim to the Imperial Implosion.

Ever-Rise sought to attack Maverick after losing to the unlikely duo last week, but Dain fought off their foes, rescuing his ill-fitting partner. 

Download NXT Free

NXT North American Champion Damian Priest def. Dexter Lumis

Damian Priest and Dexter Lumis’ unique clash of styles quickly progressed into a true heavyweight tussle with both men pulling out all the stops.

The Tortured Artist hit a Uranage and locked in Silence on Priest a move that few,

if anyone escapes but Priest wriggled away just enough for a rope break.

Download NXT Free

Interference by Cameron Grimes spelled doom for Lumis, as The Technical Savage dropped him with the Cave-In,

leaving him a sitting duck for South of Heaven and the pin by Priest. Afterward,

Grimes was greeted with the Reckoning from Priest, though the North American Champion’s own celebration.

was cut short due to a steel chair attack by Johnny Gargano.

NXT General Manager William Regal announced Gargano would challenge Priest for his title at NXT Halloween Havoc,

but that bout, as well as Candice LeRae’s contest against Io Shirai, would be contested under Spin The Wheel,

Make The Deal rules, harkening back to Halloween Havocs of years’ past. 

 

Download NXT Free

Complete name : WWE.NXT.2020.10.14.1080p.HDTV.x264-Star.mkv
Format : Matroska
Format version : Version 4
File size : 6.48 GiB
Duration : 1 h 30 min
Overall bit rate : 10.3 Mb/s
Writing library : Lavf58.29.100

Download NXT Free

Video
ID : 1
Format : AVC
Duration : 1 h 30 min
Bit rate : 10 000 kb/s
Width : 1 920 pixels
Height : 1 078 pixels
Display aspect ratio : 16:9
Frame rate mode : Constant
rate : 29.970 (30000/1001) FPS
Color space : YUV
Chroma subsampling : 4:2:0
Bit depth : 8 bits
Scan type : Progressive
Bits/(Pixel*Frame) : 0.161
Stream size : 6.19 GiB (96%)
Forced : No
Color range : Limited
Color primaries : BT.709
Transfer characteristics : BT.709
Matrix coefficients : BT.709

Download NXT Free

Audio
ID : 2
Format : AC-3
Format/Info : Audio Coding 3
Commercial name : Dolby Digital
Codec ID : A_AC3
Duration : 1 h 30 min
Bit rate mode : Constant
Bit rate : 256 kb/s
Channel(s) : 2 channels
Channel layout : L R
Sampling rate : 48.0 kHz
Frame rate : 31.250 FPS (1536 SPF)
Compression mode : Lossy
Delay relative to video : -5 ms
Stream size : 166 MiB (2%)
Title : Stereo
Service kind : Complete Main
Default : Yes
Forced : No

 

Download NXT Free 2020 10 14 WWE Full Show 1080p

 

 

Watch online

 

Server 1

 

 

 

 

watch now

 

 

 

 

Server-2

 

 

 

watch now

 

 

 

 

Server-3

 

 

 

Download NXT Free

 

 

 

 

Uploaded By Site DX-TV.com

 

 

Download Links with premium High Speed   

 

 

 

dropapk.to

 

 

 

nitroflare.com

 

 

 

rapidgator.net

 

 

dx-tv.com

 

urlfree.net

Leave a Reply

Your email address will not be published. Required fields are marked *

This site uses Akismet to reduce spam. Learn how your comment data is processed.