Watch NJPW English G1 Climax 30 Day 16 2020 Free Online

NJPW English G1 Climax 30 Day 16 2020 720p Full Show Online DX-TV

 

NJPW English G1 Climax 30 Day 16

 

 NJPW English G1 Climax 30 Day 16
 


 

 

Watch NJPW English G1 Climax 30 Day 16 2020 Full Show Online

 

After eight matches wrestled, Tetsuya Naito and EVIL top B Block in G1 Climax 30 at 12 points, with YOSHI-HASHI at the bottom of the table with two. 

KENTA started the night’s block action still with slim hopes of making it to the final as he took on YOSHI-HASHI. KENTA took his opponent somewhat lightly at the outset, staring down YOSHI-HASHI’s staff rather than his opponent, and was quickly taken down with a Headhunter before taking a walk outside. There he drew YOSHI-HASHI’s ire and presence by picking up the Headhunter’s accessory, and quickly took advantage with guardrail shots. 

NJPW English G1 Climax 30 Day 16

The steel did a number on YOSHI-HASHI’s previously injured shoulder, and KENTA honed in on the area with stretches and some brutally accurate kicks. The CHAOS member’s pride wouldn’t let YOSHI-HASHI die though, and a dropkick and double knees left KENTA rocked until a powerslam turned things back to the BULLET CLUB corner. 

Again YOSHI-HASHI fired up in the face of KENTA’s kicks but couldn’t stop a pair of boots in the corner, nor a double stomp to the sternum for two. YOSHI-HASHI continued to dig deep however, and connected with a Liger Bomb before sinking in the Butterfly Lock. When KENTA found the ropes though, a running knee was countered KENTA looked for Game Over , his opponent barely escaping. 

NJPW English G1 Climax 30 Day 16

YOSHI-HASHI escapes Go2Sleep too, landing a DDT, Snapdragon suplex and a lariat for two. Sensing a win was near, Kumagoroshi scored, but again only scrored a two count. YOSHI-HASHI couldn’t quite convert to Karma, and was countered into Game Over for KENTA’s fourth win. 

NJPW English G1 Climax 30 Day 16

Complete name : NJPW.2020.10.14.G1.Climax.30.Day.16.ENGLISH.720p.WEB.h264-LATE.mkv
Format : Matroska
Format version : Version 4
File size : 2.19 GiB
Duration : 2 h 36 min
Overall bit rate : 2 006 kb/s

NJPW English G1 Climax 30 Day 16

Video
ID : 1
Format : AVC
Duration : 2 h 36 min
Bit rate : 1 904 kb/s
Width : 1 280 pixels
Height : 720 pixels
Display aspect ratio : 16:9
rate mode : Constant
Frame rate : 30.000 FPS
Color space : YUV
Chroma subsampling : 4:2:0
Bit depth : 8 bits
Scan type : Progressive
Bits/(Pixel*Frame) : 0.069
Stream size : 2.08 GiB (95%)

NJPW English G1 Climax 30 Day 16

Audio
ID : 2
Format : AAC LC
Format/Info : Advanced Audio
Codec ID : A_AAC-2
Duration : 2 h 36 min
Bit rate : 96.0 kb/s
Channel(s) : 2 channels
Channel layout : L R
Sampling rate : 44.1 kHz
Frame rate : 43.066 FPS
Compression mode : Lossy
Delay relative to video : -23 ms
Stream size : 107 MiB (5%)
Default : Yes
Forced : No

 

Watch NJPW English G1 Climax 30 Day 16 2020 Full Show Online

 

 

Watch online

 

 

Server 1

 

 

 

 

watch now

 

 

 

 

Server-2

 

 

 

watch now

 

 

 

 

Server-3

 

 

 

NJPW English G1 Climax 30 Day 16

 

 

 

 

Uploaded By Site DX-TV.com

 

 

 

 

Download Free Links with normal and high Speed [ more 14 hosts ]  

 

 

 

http://shrt10.com/CP09QcHUs
http://shrt10.com/vxd0Z
http://shrt10.com/C99DPd1oY
http://shrt10.com/jgWO6NFzZ
http://shrt10.com/u3OaZN
http://shrt10.com/WgfLi
http://shrt10.com/mS9yWNYq5
http://shrt10.com/dIdUa
http://shrt10.com/yIpeiI31F

 

 

 

 

Download Links with premium High Speed   

 

 

 

 

dropapk.to

 

 

 

nitroflare.com

 

 

 

rapidgator.net

 

 

 

uploaded.net

 

 

 

uploadgig.com

 

 

 

 

 

dx-tv.com

 

urlfree.net

Leave a Reply

Your email address will not be published. Required fields are marked *

This site uses Akismet to reduce spam. Learn how your comment data is processed.