NJPW Day 17 English G1 Climax 30 2020 10 16

Watch NJPW Day 17 English G1 Climax 30 2020 10 16 DX-TV

 

NJPW Day 17 English G1

 

 WWE RAW

 

NJPW Day 17 English G1 Climax 30 2020 10 16

 

 

If White wins, he is through to the G1 final. 

Ishii is mathematically eliminated

 

Jay White might be tied at the top of the table with Kazuchika Okada and Kota Ibushi at 12 points, but he effectively leads the block. In NJPW tournaments, if wrestlers are tied on point scores, their record against one another is taken into accoung, and White has beaten both Okada and Ibushi which means that a tie after tonight means he wins. In essence then, White is fully in charge of his own destiny, the only wrestler on tonight’s card where that case applies and as such his match with Ishii tops tonight’s card. 

NJPW Day 17 English G1

Before the G1 tournament, White was completely confident about his encounter with the six point scoring Ishii. ‘All he wants to do is stand and trade strikes,’ the Switchblade commented, ‘I’m smarter than that’. Certainly smarts, and assists from Gedo has taken Jay to where he is now, and should pit him as a heavy favourite. Yet Ishii thrives in this kind of an environment, and more importantly, has won their only singles encounter to date, neutralizing both tactical edges and Gedo’s presence to score a win in last year’s tournament. Ishii also holds a positive career win/loss record of 4-3 on the final night of league competition and would take great delight in furthering that edge, as well as helping one of his CHAOS teammates in Okada or Will Ospreay to the finals in the process. 

NJPW Day 17 English G1

Complete name : NJPW.2020.10.16.G1.Climax.30.Day.17.ENGLISH.WEB.h264-LATE.mkv
Format : Matroska
Format version : Version 4
File size : 2.21 GiB
Duration : 2 h 43 min
Overall bit rate : 1 926 kb/s

NJPW Day 17 English G1

Video
ID : 1
Format : AVC
Format/Info : Advanced
Codec ID : V_MPEG4/ISO/AVC
Duration : 2 h 43 min
Bit rate : 1 824 kb/s
Width : 960 pixels
Height : 540 pixels
Display aspect ratio : 16:9
Frame rate mode : Constant
Frame rate : 30.000 FPS
Color space : YUV
Chroma subsampling : 4:2:0
Bit depth : 8 bits
Scan type : Progressive
Bits/(Pixel*Frame) : 0.117
Stream size : 2.09 GiB (95%)
Default : Yes
Forced : No
Color range : Limited
Color primaries : BT.601 PAL
Transfer characteristics : BT.601
Matrix coefficients : BT.470

NJPW Day 17 English G1

Audio
ID : 2
Format : AAC LC
Format/Info : Advanced Audio
Codec ID : A_AAC-2
Duration : 2 h 43 min
Bit rate : 99.8 kb/s
Channel(s) : 2 channels
Channel layout : L R
Sampling rate : 44.1 kHz
Frame rate : 43.066 FPS (1024 SPF)
Compression mode : Lossy
Stream size : 117 MiB (5%)
Language : English
Default : Yes
Forced : No

 

 

 

NJPW Day 17 English G1 Climax 30 2020 10 16

 

 

 

 

Watch online

 

 

 

 

 

Server 1

 

 

 

 

NJPW Day 17 English G1

 

 

 

 

Server-2

 

 

 

NJPW Day 17 English G1

 

 

 

 

Server-3

 

 

 

watch now

 

 

 

 

Uploaded By Site DX-TV.com

 

 

 

 Day 17 English G1

 

 

Download Links with premium High Speed   

 

 

dropapk.to

 

 

 

nitroflare.com

 

 

 

rapidgator.net

 

 

 

uploadgig.com

 

 

 

 

 

dx-tv.com

 

urlfree.net

Leave a Reply

Your email address will not be published. Required fields are marked *

This site uses Akismet to reduce spam. Learn how your comment data is processed.