NJPW Strong Ep 11 English/ Japanese 2020 10 16

Watch NJPW Strong Ep 11 English/ Japanese 2020 10 16 DX-TV

 

NJPW Strong

 

 NJPW Strong
 


 

 

NJPW Strong Ep 11 English/ Japanese 2020 10 16

 

 

 

 

Complete name : NJPW.2020.10.16.Strong.Episode.11.English.720p.WEB.h264-DaShield.mp4
Format : MPEG-4
Format profile : Base Media
Codec ID : isom
File size : 798 MiB
Duration : 54 min 42 s
Overall bit rate mode : Variable
Overall bit rate : 2 038 kb/s
Writing application : Lavf58.45.100

NJPW Strong

Video
ID : 1
Format : AVC
Duration : 54 min 42 s
Bit rate : 1 904 kb/s
Width : 1 280 pixels
Height : 720 pixels
Display aspect ratio : 16:9
Frame rate mode : Constant
Frame rate : 30.000 FPS
Color space : YUV
Chroma subsampling : 4:2:0
Bit depth : 8 bits
Scan type : Progressive
Bits/(Pixel*Frame) : 0.069
Stream size : 746 MiB (93%)

NJPW Strong

Audio
ID : 2
Format : AAC LC
Format/Info : Advanced Audio
Codec ID : mp4a-40-2
Duration : 54 min 42 s
Bit rate mode : Variable
Bit rate : 125 kb/s
Maximum bit rate : 175 kb/s
Channel(s) : 2 channels
Channel layout : L R
Sampling rate : 44.1 kHz
Frame rate : 43.066 FPS
Compression mode : Lossy
Stream size : 49.0 MiB (6%)
Language : English
Default : Yes
Alternate group : 1

NJPW Strong

Complete name : NJPW.2020.10.16.Strong.Episode.11.Japanese.720p.WEB.h264-DaShield.mp4
Format : MPEG-4
Format profile : Base Media
Codec ID : isom
File size : 798 MiB
Duration : 54 min 42 s
Overall bit rate mode : Variable
Overall bit rate : 2 038 kb/s
Writing application : Lavf58.45.100

NJPW Strong

Video
ID : 1
Format : AVC
Duration : 54 min 42 s
Bit rate : 1 904 kb/s
Width : 1 280 pixels
Height : 720 pixels
Display aspect ratio : 16:9
Frame rate mode : Constant
Frame rate : 30.000 FPS
Color space : YUV
Chroma subsampling : 4:2:0
Bit depth : 8 bits
Scan type : Progressive
Bits/(Pixel*Frame) : 0.069

NJPW Strong

Audio
ID : 2
Format : AAC LC
Format/Info : Advanced Audio
Codec ID : mp4a-40-2
Duration : 54 min 42 s
Bit rate mode : Variable
Bit rate : 125 kb/s
Maximum bit rate : 140 kb/s
Channel(s) : 2 channels
Channel layout : L R
Sampling rate : 44.1 kHz
Frame rate : 43.066 FPS
Compression mode : Lossy
Stream size : 49.0 MiB (6%)
Language : English
Default : Yes
Alternate group : 1

 

 

 

NJPW Strong Ep 11 English/ Japanese 2020 10 16

 

 

 

 

Watch online

 

 

 

 

 

Server 1

 

 

 

 

watch now

watch now

 

 

NJPW Strong

 

Server-2

 

 

 

watch now

NJPW Strong

 

 

 

 

Server-3

 

NJPW Strong

 

NJPW Strong

watch now

 

 

 

 

Uploaded By Site DX-TV.com

 

 

Download Links with premium High Speed   

 

 

 

dropapk.to

http://shrt10.com/8HWCUgtGe
http://shrt10.com/kcwLU

 

 

nitroflare.com

http://shrt10.com/9zMttIEe
http://shrt10.com/F64kwm

 

 

rapidgator.net

http://shrt10.com/zPBi4LQob
http://shrt10.com/GoohIQp

 

 

 

uploadgig.com

 

http://shrt10.com/qvIdOXn
http://shrt10.com/Yo8zu2k

 

 

 

dx-tv.com

 

urlfree.net

Leave a Reply

Your email address will not be published. Required fields are marked *

This site uses Akismet to reduce spam. Learn how your comment data is processed.