Watch Wrestling NJPW G1 CLIMAX 30 Day 18 2020 10 17

Wrestling NJPW G1 CLIMAX 30 Day 18 2020 10 17 DX-TV

 

Watch Wrestling NJPW G1 CLIMAX 30

 

 Watch Wrestling NJPW G1 CLIMAX 30

 

Watch Wrestling NJPW G1 CLIMAX 30 Day 18 2020 10 17

 

SANADA to face Kota Ibushi on October 18 in Ryogoku

SANADA emerged from a three man tie at the top of B Block in G1 Climax tonight with a shot in the finals against Kota Ibushi Sunday.

had the same point total as Tetsuya Naito and EVIL, but with wins over the two men, advances on tie breakers. 

Watch Wrestling NJPW G1 CLIMAX 30

Naito would have advanced on point totals were it not for the efforts of KENTA.

Their bout started with mind games from both men as each took time to engage with the other,

before KENTA took the advantage with a shot from his US Heavyweight Right to Challenge briefcase.

Naito was put in the position of fighting back from underneath and did so with strong neck work,

but KENTA fired back with some severe strikes including a brutal knee to the eye.

As Naito cut the BULLET CLUB member off, Watch Wrestling NJPW G1 CLIMAX 30

it seemed as if the match was in his grasp as signature back elbows were followed with Valentia,

but as El Ingobernable went to follow with Destino, KENTA cradled Naito tight to score the three count. 

  Wrestling NJPW G1 CLIMAX 30

Complete name : NJPW Day 18 G1 CLIMAX 30 2020 10 17 WEB DX-TV.mp4
Format : MPEG-4
Format profile : Base Media
Codec ID : isom
File size : 2.58 GiB
Duration : 3 h 11 min
Overall bit rate : 1 936 kb/s
Writing application : Lavf58.25.

Watch Wrestling NJPW G1 CLIMAX 30

Video
ID : 1
Format : AVC
Format/Info : Advanced
Duration : 3 h 11 min
Bit rate : 1 827 kb/s
Width : 960 pixels
Height : 540 pixels
Display aspect ratio : 16:9
Frame rate mode : Variable
Frame rate : 30.000 FPS
rate : 0.833 FPS
Color space : YUV
Chroma : 4:2:0
Bit depth : 8 bits
Scan type : Progressive
Bits/(Pixel*Frame) : 0.117
Stream size : 2.44 GiB (94%)
Color range : Limited
Color primaries : BT.601 PAL
Transfer characteristics : BT.601
Matrix coefficients : BT.470 
Codec configuration box : avcC

Watch Wrestling NJPW G1 CLIMAX 30

Audio
ID : 2
Format : AAC LC
Format/Info : Advanced Audio
Codec ID : mp4a-40-2
Duration : 3 h 11 min
Bit rate mode : Constant
Bit rate : 99.4 kb/s
Channel(s) : 2 channels
Channel layout : L R
Sampling rate : 44.1 kHz
Frame rate : 43.066 FPS (1024 SPF)
Compression mode : Lossy
Stream size : 136 MiB (5%)
Default : Yes
Alternate group : 1

 

 

 

 Wrestling NJPW G1 CLIMAX 30 Day 18 2020 10 17

 

 

 

 

Watch online

 

 

 

 

 

Server 1

 

 

 

 

Watch Wrestling NJPW G1 CLIMAX 30

 

 

 

 

Server-2

 

 

 

Watch Wrestling NJPW G1 CLIMAX 30

 

 

 

 

Server-3

 

 

 

watch now

 

 

 

 

Uploaded By Site DX-TV.com

 

 

Download Links with premium High Speed   

 

 

 

dropapk.to

 

 

 

nitroflare.com

 

 

 

rapidgator.net

 

 

 

uploaded.net

 

 

 

uploadgig.com

 

 

 

 

 

dx-tv.com

 

urlfree.net

Leave a Reply

Your email address will not be published. Required fields are marked *

This site uses Akismet to reduce spam. Learn how your comment data is processed.